Елементарно (Сезон 1) / Elementary (Season 1) (2012-2013) 720p Ukr/Eng

Нові коментарі

Нова тема   Відповісти
Автор Повідомлення
Dark Invader 
Модератор відео


З нами з: 06.01.11
Востаннє: 29.11.20
Повідомлень: 3007

2013-09-26 10:25  
Елементарно (Сезон 1) / Elementary (Season 1) (2012-2013) 720p Ukr/Eng

Елементарно (Сезон 1) / Elementary (Season 1) (2012-2013) 720p Ukr/Eng


Жанр: драма, детектив, кримінал
Країна: США



Кінокомпанія: CBS Television Studios, Timberman/Beverly Productions, Hill of Beans Productions / CBS
Режисери: Джон Полсон, Ендрю Бернштейн, Сет Мен, Сана Хамрі та інші
Актори: Джонні Лі Міллер, Люсі Лью, Ейдан Куінн, Менні Перез, Крістен Буш, Лайам Фергюсон, Келлі Сауферленд, Отем Стейн та інші

Сюжет:
Сучасна історія про дует, що розкриває злочини, Шерлока Холмса й доктора Ватсона, який допомагає поліції Нью-Йорка в найскладніших справах. Після лікування від алкоголізму й наркоманії Шерлок збігає з Лондона на Манхеттен, а його багатий батько змушує його взяти «компаньйонку по тверезості» — Джоан Ватсон. Для Джоан це можливість надолужити минулі гріхи — вона була успішним хірургом до того, як з її провини загинув пацієнт, і вона втратила ліцензію. Але Шерлок не такий, як її попередні клієнти. Він відразу ж повідомляє, що підтримувати тверезість він буде за допомогою роботи консультантом у поліції Нью-Йорка. У Ватсон не залишається вибору крім як іти за ним усюди. Шерлок знаходить її медичні знання корисними, а вона раптово знаходить у собі таланти слідчого. Застосувавши дедуктивний метод, легко здогадатися, що ексцентричний Шерлок Холмс не довго простягне в Нью-Йорку, розкриваючи злочини. Його пориви повинен стримувати вірний друг. Хто б це міг бути? Елементарно! Ватсон!


Тривалість: 1 серія: ~ 43 хв. (цілком серій: 24)
Перелік серій
01. Pilot
02. While You Were Sleeping
03. Child Predator
04. The Rat Race
05. Lesser Evils
06. Flight Risk
07. One Way to Get Off
08. The Long Fuse
09. You Do It to Yourself
10. The Leviathan
11. Dirty Laundry
12. M.
13. The Red Team
14. The Deductionist
15. A Giant Gun, Filled with Drugs
16. Details
17. Possibility Two
18. Déjà Vu All Over Again
19. Snow Angels
20. Dead Man's Switch
21. A Landmark Story
22. Risk Management
23. The Woman
24. Heroine
Якість: 720р
Відео:
кодек:
розмір кадру: 1280 х 720
бітрейт: ~ 4 000 кб/с

Аудіо # 1:
мова: українська
переклад: професійний дубльований
кодек: 2.0
бітрейт: 192 кб/с

Аудіо # 2:
мова: англійська
переклад: оригінал
кодек: 5.1
бітрейт: 384 кб/с

Переклад і озвучення виконано:
студією "Так Треба Продакшн" на замовлення телеканалу

Info
General
Unique ID : 188004803271142285359386925965397597213 (0x8D706874B5BEEFCF86C73C4DCD421C1D)
Complete name : D:\Нова папка\Elementary - Season 1 (2012-2013) 720p [Ukr, Eng]\Elementary - S01E01 (2012-2013) 720p [Ukr, Eng].
Format :
Format version : Version 2
File size : 1.49 GiB
Duration : 45mn 44s
Overall bit rate : 4 655 Kbps
Encoded date : UTC 2013-10-01 15:08:40
Writing application : v4.9.1 ('Ich will') зібрано Jul 11 2011 23:53:15
Writing library : libebml v1.2.1 + v1.1.1

Video
ID : 1
Format : AVC
Format/Info : Advanced Video Codec
Format profile : [email protected]
Format settings, CABAC : No
Format settings, ReFrames : 2 frames
Codec ID : V_MPEG4/ISO/AVC
Duration : 45mn 44s
Bit rate : 3 986 Kbps
Width : 1 280 pixels
Height : 720 pixels
Display aspect ratio : 16:9
Frame rate mode : Constant
Frame rate : 23.976 fps
Color space : YUV
Chroma subsampling : 4:2:0
Bit depth : 8 bits
Scan type : Progressive
Bits/(Pixel*Frame) : 0.180
Stream size : 1.27 GiB (86%)
Language : English
Default : No
Forced : No
Color primaries : BT.709
Transfer characteristics : BT.709
Matrix coefficients : BT.709

Audio #1
ID : 2
Format : AC-3
Format/Info : Audio Coding 3
Mode extension : CM (complete main)
Format settings, Endianness : Big
Codec ID : A_AC3
Duration : 45mn 44s
Bit rate mode : Constant
Bit rate : 192 Kbps
Channel(s) : 2 channels
Channel positions : Front: L R
Sampling rate : 48.0 KHz
Bit depth : 16 bits
Compression mode : Lossy
Stream size : 62.8 MiB (4%)
Title : Так Треба Продакшн на замовлення НТН
Language : Ukrainian
Default : Yes
Forced : No

Audio #2
ID : 3
Format : AC-3
Format/Info : Audio Coding 3
Mode extension : CM (complete main)
Format settings, Endianness : Big
Codec ID : A_AC3
Duration : 45mn 44s
Bit rate mode : Constant
Bit rate : 384 Kbps
Channel(s) : 6 channels
Channel positions : Front: L C R, Side: L R, LFE
Sampling rate : 48.0 KHz
Bit depth : 16 bits
Compression mode : Lossy
Stream size : 126 MiB (8%)
Language : English
Default : No
Forced : No
Торрент-файл оновлено (17.01.2014)
Додано 6-24 серії.
Повний сезон!
В останній серії є місця без перекладу.


Скріншоти:


Джерело:
Особиста оцінка: 10 - без зайвих вагань рекомендую всім!

Цитата:
Подяки:
За запис slavik_v_z , BILko, РОМЕО, woxeloid.
За синхронізацію slavik_v_z , BILko.
За постер Gashik.


Бронзовий реліз (на рейтинг впливає 75% завантаженого)
 Трекер:    Зареєстрований   

Завантажити / скачати серіал українською



відео для новачків



 Зареєстрований:   2014-01-17 00:39
 Розмір:   33.68 GB 
 Оцінка серіалу:   9.7/10 (Голосів: 43)
   
Мельниченко 
Свій


З нами з: 27.08.09
Востаннє: 02.07.16
Повідомлень: 145

2013-09-27 16:54  
Хороший серіал, мені подобається Happy
NeetScrool 
Відео Гуртом - фільмокрай
Відео Гуртом - фільмокрай


З нами з: 10.01.13
Востаннє: 30.11.20
Повідомлень: 3105

2013-09-30 17:28  
Коли продовження?
Dark Invader 
Модератор відео


З нами з: 06.01.11
Востаннє: 29.11.20
Повідомлень: 3007

2013-09-30 21:07  
NeetScrool написано:
Коли продовження?

Сьогодні.

Додано через 1 годину 26 хвилин 6 секунд:

Торрент-файл оновлено (30.09.2013)
Додано 3-4 серії.

Romko_IF 
Свій


З нами з: 03.09.12
Востаннє: 29.11.20
Повідомлень: 79

2013-09-30 21:43  
Класно! Нарешті Українською мовою. Happy
NeetScrool 
Відео Гуртом - фільмокрай
Відео Гуртом - фільмокрай


З нами з: 10.01.13
Востаннє: 30.11.20
Повідомлень: 3105

2013-10-01 16:37  
Ще серії є?
NeetScrool 
Відео Гуртом - фільмокрай
Відео Гуртом - фільмокрай


З нами з: 10.01.13
Востаннє: 30.11.20
Повідомлень: 3105

2013-10-03 20:37  
Хочу продовження!
Dark Invader 
Модератор відео


З нами з: 06.01.11
Востаннє: 29.11.20
Повідомлень: 3007

2013-10-04 10:45  
Торрент-файл оновлено (04.10.2013)
Замінено 1-4 серії.
Додано 5 серію.

NeetScrool 
Відео Гуртом - фільмокрай
Відео Гуртом - фільмокрай


З нами з: 10.01.13
Востаннє: 30.11.20
Повідомлень: 3105

2013-10-04 11:20  
В чому причина заміни 1-4 серій?
Dark Invader 
Модератор відео


З нами з: 06.01.11
Востаннє: 29.11.20
Повідомлень: 3007

2013-10-04 11:30  
NeetScrool написано:
В чому причина заміни 1-4 серій?

Замінено звукові доріжки, дещо поправлений звук. І ще як написав автор зведення доріжок.

BILko написано:
Цитата:
Треба буде докачати 5% кожного епізоду бо тепер говорить в кожному епізоді "дубльовано Так Треба Продакшн на замовлення НТН (в першому епізоді обрізали останню букву але тепер вставив).

Amadeus Gauss 
Новенький


З нами з: 15.02.12
Востаннє: 07.11.20
Повідомлень: 5

2013-10-10 21:32  
Коли шоста серія?
gaidamack 
Свій


З нами з: 19.07.08
Востаннє: 29.11.20
Повідомлень: 123

2013-10-19 17:31  
Коли чекати наступні серії, і чи чекати взагалі...?
FastRoBiN 
Свій


З нами з: 31.07.10
Востаннє: 27.11.20
Повідомлень: 50

2014-01-14 21:00  
Шановний релізор, чи буде продовження цього релізу?? , бо НТН, вже другий сезон анонсує !!
Dark Invader 
Модератор відео


З нами з: 06.01.11
Востаннє: 29.11.20
Повідомлень: 3007

2014-01-15 18:05  
FastRoBiN написано:
Шановний релізор, чи буде продовження цього релізу?? , бо НТН, вже другий сезон анонсує !!

Буде.

Dark Invader 
Модератор відео


З нами з: 06.01.11
Востаннє: 29.11.20
Повідомлень: 3007

2014-01-17 00:39  
Торрент-файл оновлено (17.01.2014)
Додано 6-24 серії.
Повний сезон!
В останній серії є місця без перекладу.

FastRoBiN 
Свій


З нами з: 31.07.10
Востаннє: 27.11.20
Повідомлень: 50

2014-01-17 14:47  
Дякую!!
Dark Invader 
Модератор відео


З нами з: 06.01.11
Востаннє: 29.11.20
Повідомлень: 3007

2014-01-18 13:44  
Через деякі технічні проблеми на роздачу повернусь ~ завтра зранку.

Мельниченко 
Свій


З нами з: 27.08.09
Востаннє: 02.07.16
Повідомлень: 145

2014-03-26 18:21  
Дайте швидкості, будь ласка
ElenaNesh 
Новенький


З нами з: 04.01.17
Востаннє: 25.11.20
Повідомлень: 3

2017-01-04 20:56  
Дякую
Pegass 
VIP


З нами з: 17.12.09
Востаннє: 29.11.20
Повідомлень: 1120

2017-09-12 09:28  
Елементарно (Сезон 1) / Elementary (Season 1) (2012-2013) 720p Ukr/Eng
Чи можете поділитися укр. доріжками ( 2.0) до цього серіалу. 1 та 2 сезон. Я вантажу серіал, але воно вантажиться дуже повільно.
Буду дуже вдячний)

waldi-hurtom 
VIP


З нами з: 07.10.12
Востаннє: 30.11.20
Повідомлень: 1217

2020-07-12 18:34  
Додивлятись не буду. 5 з 10. Джеремі Брет затіняє усіх холмсів. Це як милуватись чорним квадратом Малевича після Джоконди, перепрошую. Не моє.
Ваш часовий пояс: GMT + 2 Години

Нова тема   Відповісти