Сімейка Крудсів / The Croods (2013) 1080p 3D Ukr/Eng | Sub Ukr/Eng

Нові коментарі

Нова тема   Відповісти
Автор Повідомлення
lnkvisitor 
Новенький


З нами з: 15.09.13
Востаннє: 05.06.17
Повідомлень: 9

2013-09-25 01:31  
Сімейка Крудсів / The Croods (2013) 1080p 3D Ukr/Eng | Sub Ukr/Eng

Сімейка Крудсів / The Croods (2013) 1080p 3D Ukr/Eng | Sub Ukr/Eng


Жанр: анімація, фентезі, комедія, пригодницький, сімейний
Країна: США



Кінокомпанія: DreamWorks Animation
Режисер: Кірк де Мікко / Kirk De Micco, Кріс Сандерс / Chris Sanders
Актори: Емма Стоун / Emma Stone, Раян Рейнольдс / Ryan Reynolds, Ніколас Кейдж / Nicolas Cage, Кетрін Кінер / Catherine Keener, Клоріс Лічмен / Cloris Leachman, Кларк Дюк / Clark Duke, Кріс Сандерс / Chris Sanders та інші

Сюжет:
Землетрус знищив будинок доісторичної сім'ї, і тепер Крудсам доведеться шукати інше пристанище. А навколо новий і небезпечний світ! Їм на допомогу приходить молодий кочівник, передові погляди якого наштовхуються на консервативність глави сім'ї Груга. Але тільки разом вони зможуть вижити і досягти своєї мети...


Тривалість: 01:38:36
Якість: 1080p
Формат 3D: Half OverUnder / Вертикальна анаморфна стереопара
Порядок ракурсів: Лівий ракурс перший
Відео:
кодек:
розмір кадру: 1920х1080
бітрейт: 13.0 Mbps

Аудіо # 1:
мова: українська
переклад: професійний дубльований
кодек: 5.1
бітрейт: 448 Kbps

Аудіо # 2:
мова: англійська
переклад: оригінал
кодек: -HD 7.1
бітрейт: 4931 кб/с

Аудіо # 3:
мова: англійська
переклад: оригінал
кодек: 5.1
бітрейт: 448 Kbps

Джерело озвучення:


Субтитри:
мова: українська
тип: пререндерні
формат: PGS

Субтитри:
мова: англійська
тип: пререндерні
формат: PGS
Info
General
Unique ID : 121526682823289805237590081732970424804 (0x5B6D301053EA5E273FB3A2F7CFDA29E4)
Complete name : The.Croods.(2013)..1080p.3D.Ukr.Eng.
Format :
Format version : Version 4 / Version 2
File size : 10.9 GiB
Duration : 1h 38mn
Overall bit rate mode : Variable
Overall bit rate : 15.8 Mbps
Movie name : The Croods (2013) 1080p 3D Ukr/Eng | RuGroup ([email protected])
Encoded date : UTC 2010-02-22 21:41:31
Writing application : mkvmerge v6.1.0 ('Old Devil') built on Apr 14 2013 12:26:22
Writing library : libebml v1.3.0 + libmatroska v1.4.0

Video
ID : 1
Format : AVC
Format/Info : Advanced Video Codec
Format profile : [email protected]
Format settings, CABAC : Yes
Format settings, ReFrames : 4 frames
Codec ID : V_MPEG4/ISO/AVC
Duration : 1h 38mn
Bit rate : 13.0 Mbps
Width : 1 920 pixels
Height : 1 080 pixels
Display aspect ratio : 16:9
Frame rate : 23.976 fps
Color space : YUV
Chroma subsampling : 4:2:0
Bit depth : 8 bits
Scan type : Progressive
Bits/(Pixel*Frame) : 0.261
Stream size : 8.92 GiB (82%)
Title : 1080p (by [email protected])
Writing library : core 116 r2074 2641b9e
Encoding settings : cabac=1 / ref=4 / deblock=1:-3:-3 / analyse=0x3:0x113 / me=umh / subme=9 / psy=1 / psy_rd=1.00:0.15 / mixed_ref=1 / me_range=32 / chroma_me=1 / trellis=2 / 8x8dct=1 / cqm=0 / deadzone=21,11 / fast_pskip=1 / chroma_qp_offset=-3 / threads=12 / sliced_threads=0 / nr=0 / decimate=1 / interlaced=0 / bluray_compat=0 / constrained_intra=0 / bframes=6 / b_pyramid=2 / b_adapt=2 / b_bias=0 / direct=3 / weightb=1 / open_gop=0 / weightp=2 / keyint=250 / keyint_min=23 / scenecut=40 / intra_refresh=0 / rc_lookahead=60 / rc=crf / mbtree=1 / crf=16.0 / qcomp=0.60 / qpmin=10 / qpmax=51 / qpstep=4 / vbv_maxrate=40000 / vbv_bufsize=30000 / crf_max=0.0 / nal_hrd=none / frame-packing=4 / ip_ratio=1.40 / aq=1:0.70
Default : Yes
Forced : No

Audio #1
ID : 2
Format : AC-3
Format/Info : Audio Coding 3
Mode extension : CM (complete main)
Codec ID : A_AC3
Duration : 1h 38mn
Bit rate mode : Constant
Bit rate : 448 Kbps
Channel(s) : 6 channels
Channel positions : Front: L C R, Side: L R, LFE
Sampling rate : 48.0 KHz
Bit depth : 16 bits
Compression mode : Lossy
Stream size : 316 MiB (3%)
Title : Ukrainian
Language : Ukrainian
Default : Yes
Forced : No

Audio #2
ID : 3
Format :
Format/Info : Digital Theater Systems
Format profile : MA / Core
Codec ID : A_DTS
Duration : 1h 38mn
Bit rate mode : Variable
Bit rate : 1 597 Kbps / 1 510 Kbps
Channel(s) : 8 channels / 6 channels
Channel positions : Front: L C R, Side: L R, Back: L R, LFE / Front: L C R, Side: L R, LFE
Sampling rate : 48.0 KHz
Bit depth : 24 bits
Compression mode : Lossless / Lossy
Title : English
Language : English
Default : No
Forced : No

Audio #3
ID : 4
Format : AC-3
Format/Info : Audio Coding 3
Mode extension : CM (complete main)
Codec ID : A_AC3
Duration : 1h 38mn
Bit rate mode : Constant
Bit rate : 448 Kbps
Channel(s) : 6 channels
Channel positions : Front: L C R, Side: L R, LFE
Sampling rate : 48.0 KHz
Bit depth : 16 bits
Compression mode : Lossy
Stream size : 316 MiB (3%)
Title : English
Language : English
Default : No
Forced : No

Text #1
ID : 5
Format : PGS
Muxing mode : zlib
Codec ID : S_HDMV/PGS
Codec ID/Info : The same subtitle format used on BDs/HD-DVDs
Title : Ukrainian
Language : Ukrainian
Default : Yes
Forced : No

Text #2
ID : 6
Format : PGS
Muxing mode : zlib
Codec ID : S_HDMV/PGS
Codec ID/Info : The same subtitle format used on BDs/HD-DVDs
Title : English
Language : English
Default : No
Forced : No

Menu
00:00:00.000 : en:00:00:00.000
00:02:34.988 : en:00:02:34.988
00:04:51.750 : en:00:04:51.750
00:09:01.249 : en:00:09:01.249
00:12:21.115 : en:00:12:21.115
00:14:04.802 : en:00:14:04.802
00:18:33.029 : en:00:18:33.029
00:21:56.982 : en:00:21:56.982
00:23:24.737 : en:00:23:24.737
00:26:49.775 : en:00:26:49.775
00:28:37.132 : en:00:28:37.132
00:30:25.657 : en:00:30:25.657
00:32:48.633 : en:00:32:48.633
00:36:03.370 : en:00:36:03.370
00:38:33.561 : en:00:38:33.561
00:41:34.534 : en:00:41:34.534
00:44:38.843 : en:00:44:38.843
00:48:02.630 : en:00:48:02.630
00:52:10.961 : en:00:52:10.961
00:55:17.481 : en:00:55:17.481
01:00:14.778 : en:01:00:14.778
01:03:58.084 : en:01:03:58.084
01:05:48.736 : en:01:05:48.736
01:08:44.037 : en:01:08:44.037
01:10:47.285 : en:01:10:47.285
01:12:37.144 : en:01:12:37.144
01:14:01.646 : en:01:14:01.646
01:19:48.575 : en:01:19:48.575
01:23:09.860 : en:01:23:09.860
01:25:16.737 : en:01:25:16.737
01:28:04.321 : en:01:28:04.321
01:30:02.230 : en:01:30:02.230
Скріншоти


Джерело:


 Трекер:    Зареєстрований   

Завантажити / скачати мультфільм українською



відео для новачків



 Зареєстрований:   2013-09-25 01:31
 Розмір:   10.85 GB 
 Оцінка мультфільму:   9.9/10 (Голосів: 18)
   
Інші релізи
   Сімейка Крудсів / The Croods (2013) 360p DmitryA  6 / 0   865 MB   2014-11-12 18:04 
   Сімейка Крудсів / The Croods (2013) 720p-mini Drool  11 / 0   1.69 GB   2013-09-26 12:02 
   Сімейка Крудсів / The Croods (2013) Remux 1080p Ukr/Eng | Sub Ukr/Eng lnkvisitor  2 / 0   20.44 GB   2013-09-24 16:43 
   Сімейка Крудсів / The Croods (2013) Ukr/Eng | Sub Ukr/Eng Gelios  34 / 3   1.76 GB   2013-09-23 21:26 
   Сімейка Крудсів / The Croods (2013) 720p Ukr/Eng | Sub Ukr/Eng 11FrYkT  12 / 0   5.48 GB   2013-09-23 20:01 
   Сімейка Крудсів / The Croods (2013) AVC | sub Ukr/Eng DеLight  5 / 0   1.45 GB   2013-09-23 19:53 
   Сімейка Крудсів / The Croods (2013) 1080p Ukr/Eng | Sub Ukr/Eng igor911  10 / 0   9.22 GB   2013-09-23 19:51 
patriot2305 
Почесний гуртомівець


З нами з: 23.04.11
Востаннє: 21.12.16
Повідомлень: 4137

2013-09-25 07:51  
Забули вказати джерело озвучення, і бажано додати інструкції з перегляду в 3D
praysu 
Забанено
Забанено


З нами з: 22.05.08
Востаннє: 13.11.13
Повідомлень: 119

2013-09-25 17:59  
patriot2305 написано:
Забули вказати джерело озвучення, і бажано додати інструкції з перегляду в 3D

Згоден з вами!

oleh19 
Частий відвідувач


З нами з: 22.06.08
Востаннє: 11.08.17
Повідомлень: 31

2013-09-25 23:51  
А BD3D з укр.мовою вже є?
skuline 
Свій


З нами з: 17.12.11
Востаннє: 20.08.17
Повідомлень: 115

2013-09-26 01:16  
Класний мульт !
lnkvisitor 
Новенький


З нами з: 15.09.13
Востаннє: 05.06.17
Повідомлень: 9

2013-09-26 01:33  
oleh19 написано:
А BD3D з укр.мовою вже є?

Десь бачив, але чи є там укр. мова не знаю. Дивитись нема як. Просять люди 3D, як є можливість чому би не допомогти.

Drool 
VIP


З нами з: 17.04.10
Востаннє: 23.08.17
Повідомлень: 1376

2013-09-26 12:07  
Спостерігаю BD3D (The_CROODS_3D_EUR.iso 40.79 GB) з хешем 88C7B41B3D1BF5378D03FC9F0A8ADD89321B5574, однак української там немає.
Ваш часовий пояс: GMT + 2 Години

Нова тема   Відповісти