Сімейка Крудсів / The Croods (2013) Remux 1080p Ukr/Eng | Sub Ukr/Eng

Нові коментарі

Нова тема   Відповісти
Автор Повідомлення
lnkvisitor 
Новенький


З нами з: 15.09.13
Востаннє: 05.06.17
Повідомлень: 9

2013-09-24 16:42  
Сімейка Крудсів / The Croods (2013) Remux 1080p Ukr/Eng | Sub Ukr/Eng

Сімейка Крудсів / The Croods (2013) Remux 1080p Ukr/Eng | Sub Ukr/Eng


Жанр: анімація, фентезі, комедія, пригодницький, сімейний
Країна: США



Кінокомпанія: DreamWorks Animation
Режисер: Кірк де Мікко / Kirk De Micco, Кріс Сандерс / Chris Sanders
Актори: Емма Стоун / Emma Stone, Раян Рейнольдс / Ryan Reynolds, Ніколас Кейдж / Nicolas Cage, Кетрін Кінер / Catherine Keener, Клоріс Лічмен / Cloris Leachman, Кларк Дюк / Clark Duke, Кріс Сандерс / Chris Sanders та інші

Сюжет:
Землетрус знищив будинок доісторичної сім'ї, і тепер Крудсам доведеться шукати інше пристанище. А навколо новий і небезпечний світ! Їм на допомогу приходить молодий кочівник, передові погляди якого наштовхуються на консервативність глави сім'ї Груга. Але тільки разом вони зможуть вижити і досягти своєї мети...


Тривалість: 01:38:36
Якість: Remux 1080p
Відео:
кодек:
розмір кадру: 1920х1080
бітрейт: 23949 кб/с

Аудіо # 1:
мова: українська
переклад: професійний дубльований
кодек: 5.1
бітрейт: 448 Kbps

Аудіо # 2:
мова: англійська
переклад: оригінал
кодек: -HD 7.1
бітрейт: 4931 кб/с

Аудіо # 3:
мова: англійська
переклад: оригінал
кодек: 5.1
бітрейт: 448 Kbps

Джерело озвучення:


Субтитри:
мова: українська
тип: пререндерні
формат: PGS

Субтитри:
мова: англійська
тип: пререндерні
формат: PGS
Info
General
Unique ID : 116797490327621975520044391581853207319 (0x57DE60DF2882ABB47034756BDEE0CB17)
Complete name : The Croods (2013) Remux p1080 Eng|Ukr.
Format :
Format version : Version 4 / Version 2
File size : 20.4 GiB
Duration : 1h 38mn
Overall bit rate mode : Variable
Overall bit rate : 29.7 Mbps
Movie name : Сімейка Крудсів / The Croods (2013) Remux p1080
Encoded date : UTC 2010-02-22 21:41:31
Writing application : mkvmerge v6.1.0 ('Old Devil') built on Apr 14 2013 12:26:22
Writing library : libebml v1.3.0 + libmatroska v1.4.0

Video
ID : 1
Format : AVC
Format/Info : Advanced Video Codec
Format profile : [email protected]
Format settings, CABAC : Yes
Format settings, ReFrames : 4 frames
Codec ID : V_MPEG4/ISO/AVC
Duration : 1h 38mn
Bit rate mode : Variable
Bit rate : 26.6 Mbps
Maximum bit rate : 30.5 Mbps
Width : 1 920 pixels
Height : 1 080 pixels
Display aspect ratio : 16:9
Frame rate : 23.976 fps
Color space : YUV
Chroma subsampling : 4:2:0
Bit depth : 8 bits
Scan type : Progressive
Bits/(Pixel*Frame) : 0.535
Stream size : 18.3 GiB (90%)
Title : The Croods
Default : Yes
Forced : No

Audio #1
ID : 2
Format : AC-3
Format/Info : Audio Coding 3
Mode extension : CM (complete main)
Codec ID : A_AC3
Duration : 1h 38mn
Bit rate mode : Constant
Bit rate : 448 Kbps
Channel(s) : 6 channels
Channel positions : Front: L C R, Side: L R, LFE
Sampling rate : 48.0 KHz
Bit depth : 16 bits
Compression mode : Lossy
Stream size : 316 MiB (2%)
Title : Ukrainian
Language : Ukrainian
Default : Yes
Forced : No

Audio #2
ID : 3
Format :
Format/Info : Digital Theater Systems
Format profile : MA / Core
Codec ID : A_DTS
Duration : 1h 38mn
Bit rate mode : Variable
Bit rate : 1 597 Kbps / 1 510 Kbps
Channel(s) : 8 channels / 6 channels
Channel positions : Front: L C R, Side: L R, Back: L R, LFE / Front: L C R, Side: L R, LFE
Sampling rate : 48.0 KHz
Bit depth : 24 bits
Compression mode : Lossless / Lossy
Title : English
Language : English
Default : No
Forced : No

Audio #3
ID : 4
Format : AC-3
Format/Info : Audio Coding 3
Mode extension : CM (complete main)
Codec ID : A_AC3
Duration : 1h 38mn
Bit rate mode : Constant
Bit rate : 448 Kbps
Channel(s) : 6 channels
Channel positions : Front: L C R, Side: L R, LFE
Sampling rate : 48.0 KHz
Bit depth : 16 bits
Compression mode : Lossy
Stream size : 316 MiB (2%)
Title : English
Language : English
Default : No
Forced : No

Text #1
ID : 5
Format : PGS
Muxing mode : zlib
Codec ID : S_HDMV/PGS
Codec ID/Info : The same subtitle format used on BDs/HD-DVDs
Title : Ukrainian
Language : Ukrainian
Default : Yes
Forced : No

Text #2
ID : 6
Format : PGS
Muxing mode : zlib
Codec ID : S_HDMV/PGS
Codec ID/Info : The same subtitle format used on BDs/HD-DVDs
Title : English
Language : English
Default : No
Forced : No
Скріншоти


Джерело:
Особиста оцінка: 8 - мені сподобалося


Золотий реліз (завантажене не впливає на рейтинг)
 Трекер:    Зареєстрований   

Завантажити / скачати мультфільм українською



відео для новачків



 Зареєстрований:   2013-09-24 16:43
 Розмір:   20.44 GB 
 Оцінка мультфільму:   10/10 (Голосів: 19)
   
Інші релізи
   Сімейка Крудсів / The Croods (2013) 360p DmitryA  3 / 0   865 MB   2014-11-12 18:04 
   Сімейка Крудсів / The Croods (2013) 720p-mini Drool  8 / 0   1.69 GB   2013-09-26 12:02 
   Сімейка Крудсів / The Croods (2013) 1080p 3D Ukr/Eng | Sub Ukr/Eng lnkvisitor  7 / 0   10.85 GB   2013-09-25 01:31 
   Сімейка Крудсів / The Croods (2013) Ukr/Eng | Sub Ukr/Eng Gelios  26 / 1   1.76 GB   2013-09-23 21:26 
   Сімейка Крудсів / The Croods (2013) 720p Ukr/Eng | Sub Ukr/Eng 11FrYkT  10 / 0   5.48 GB   2013-09-23 20:01 
   Сімейка Крудсів / The Croods (2013) AVC | sub Ukr/Eng DеLight  4 / 0   1.45 GB   2013-09-23 19:53 
   Сімейка Крудсів / The Croods (2013) 1080p Ukr/Eng | Sub Ukr/Eng igor911  9 / 0   9.22 GB   2013-09-23 19:51 
Olegok13 
Новенький


З нами з: 14.11.10
Востаннє: 21.08.17
Повідомлень: 13

2014-01-22 00:09  
дякую) ще не двивися, буду дивитись мабуть на англійські доріжці
Drool 
VIP


З нами з: 17.04.10
Востаннє: 21.08.17
Повідомлень: 1374

2014-01-24 09:53  
Наш дубляж теж на висоті.
Ваш часовий пояс: GMT + 2 Години

Нова тема   Відповісти