Сімейка Крудсів / The Croods (2013) 1080p Ukr/Eng | Sub Ukr/Eng

Нові коментарі

Нова тема   Відповісти
Автор Повідомлення
Anonymous 







2013-09-23 01:00  
Сімейка Крудсів / The Croods (2013) 1080p Ukr/Eng | Sub Ukr/Eng



Жанр: анімація, фентезі, комедія, пригодницький, сімейний
Країна: США



Кінокомпанія: DreamWorks Animation
Режисер: Кірк де Мікко / Kirk De Micco, Кріс Сандерс / Chris Sanders
В оригіналі ролі озвучили: Емма Стоун / Emma Stone, Раян Рейнольдс / Ryan Reynolds, Ніколас Кейдж / Nicolas Cage, Кетрін Кінер / Catherine Keener, Клоріс Лічмен / Cloris Leachman, Кларк Дюк / Clark Duke, Кріс Сандерс / Chris Sanders та інші

Сюжет:
Землетрус знищив будинок доісторичної сім'ї, і тепер Крудсам доведеться шукати інше пристанище. А навколо новий і небезпечний світ! Їм на допомогу приходить молодий кочівник, передові погляди якого наштовхуються на консервативність глави сім'ї Груга. Але тільки разом вони зможуть вижити і досягти своєї мети...


Українські трейлери



Цікаві факти про фільм

• Перший фільм студії DreamWorks Animation, дистриб'ютором якого стала компанія 20th Century Fox.


Рейтинг MPAA: PG - рекомендується присутність батьків
Вікова категорія: 0+

Тривалість: 01:38:36
Якість: 1080p
Відео:
кодек:
розмір кадру: 1920x816
бітрейт: 11418 кб/с, crf=17.3

Аудіо # 1:
мова: українська - Postmodern
переклад: професійний дубльований
кодек: 5.1
бітрейт: 448 кб/с
Інформація про дубляж

Переклад: Олекса Негребецький
Режисер дубляжу: Костянтин Лінартович
Звукорежисер: Олександр Козярук
Керівник проекту: Ірина Туловська
Ролі дублювали: Григорій Герман, Анастасія Чумаченко, Андрій Федінчик, Ірина Ткаленко, Валентина Гришокіна, Денис Капустін, Кирило Капустін та інші.
Аудіо # 2:
мова: англійська
переклад: оригінал
кодек: 5.1
бітрейт: 1536 кб/с

Субтитри #1:
мова: українська (повні)
тип: програмні (м'які)
формат: *.srt

Субтитри #2:
мова: англійська (повні)
тип: програмні (м'які)
формат: *.srt

Збережено оригінальні розділи, як на Blu-ray.
Info
General
Unique ID : 191493055878933858898439083678089692508 (0x901038967793AAB0A4F90719E93D455C)
Complete name : The Croods (2013) [Ukr,Eng;sub.Ukr,Eng] 1080p [Hurtom & HDCLUB].
Format :
Format version : Version 4 / Version 2
File size : 9.22 GiB
Duration : 1h 38mn
Overall bit rate : 13.4 Mbps
Movie name : Сімейка Крудсів / The Croods (2013) 1080p [Hurtom & HDCLUB]
Encoded date : UTC 2013-09-23 16:40:54
Writing application : mkvmerge v6.4.1 ('Omega Point') built on Sep 16 2013 22:05:10
Writing library : libebml v1.3.0 + libmatroska v1.4.1

Video
ID : 1
Format : AVC
Format/Info : Advanced Video Codec
Format profile : [email protected]
Format settings, CABAC : Yes
Format settings, ReFrames : 5 frames
Codec ID : V_MPEG4/ISO/AVC
Duration : 1h 38mn
Bit rate : 11.2 Mbps
Width : 1 920 pixels
Height : 816 pixels
Display aspect ratio : 2.35:1
Frame rate mode : Constant
Frame rate : 23.976 fps
Color space : YUV
Chroma subsampling : 4:2:0
Bit depth : 8 bits
Scan type : Progressive
Bits/(Pixel*Frame) : 0.297
Stream size : 7.68 GiB (83%)
Title : Сімейка Крудсів / The Croods (2013) 1080p - Release for HDCLUB
Writing library : core 138 r2359+704+48 3f879a0 tMod [[email protected]:2:0 X86_64]
Encoding settings : cabac=1 / ref=5 / deblock=1:-2:-2 / analyse=0x3:0x113 / me=umh / subme=11 / psy=1 / fade_compensate=0.00 / psy_rd=1.00:0.00 / mixed_ref=1 / me_range=48 / chroma_me=1 / trellis=2 / 8x8dct=1 / cqm=0 / deadzone=21,11 / fast_pskip=1 / chroma_qp_offset=-2 / threads=12 / lookahead_threads=2 / sliced_threads=0 / nr=0 / decimate=1 / interlaced=0 / bluray_compat=0 / constrained_intra=0 / fgo=0 / bframes=7 / b_pyramid=2 / b_adapt=2 / b_bias=0 / direct=3 / weightb=1 / open_gop=0 / weightp=2 / keyint=250 / keyint_min=23 / scenecut=40 / intra_refresh=0 / rc_lookahead=60 / rc=crf / mbtree=0 / crf=17.3000 / qcomp=0.60 / qpmin=0:0:0 / qpmax=69:69:69 / qpstep=4 / vbv_maxrate=62500 / vbv_bufsize=78125 / crf_max=0.0 / nal_hrd=none / ip_ratio=1.40 / pb_ratio=1.30 / aq=4:0.70 / aq-sensitivity=11.00 / aq-factor=1.00:1.00:1.00 / aq2=1:0.60 / aq2-sensitivity=9.00 / aq2-factor=1.00:1.00:1.00 / aq3=1:[0.60:0.60]:[0.60:0.60]:[0.60:0.60]:[0.60:0.60] / aq3-sensitivity=10.00 / aq3-factor=[1.00:1.00]:[1.00:1.00]:[1.00:1.00] / aq3-boundary=192:64:24
Language : English
Default : Yes
Forced : No
Color primaries : BT.709
Transfer characteristics : BT.709
Matrix coefficients : BT.709

Audio #1
ID : 2
Format : AC-3
Format/Info : Audio Coding 3
Mode extension : CM (complete main)
Format settings, Endianness : Big
Codec ID : A_AC3
Duration : 1h 38mn
Bit rate mode : Constant
Bit rate : 448 Kbps
Channel(s) : 6 channels
Channel positions : Front: L C R, Side: L R, LFE
Sampling rate : 48.0 KHz
Bit depth : 16 bits
Compression mode : Lossy
Stream size : 316 MiB (3%)
Title : Dub [Blu-ray EUR] 5.1 448 kbps
Language : Ukrainian
Default : Yes
Forced : No

Audio #2
ID : 3
Format :
Format/Info : Digital Theater Systems
Mode : 16
Format settings, Endianness : Big
Codec ID : A_DTS
Duration : 1h 38mn
Bit rate mode : Constant
Bit rate : 1 509 Kbps
Channel(s) : 6 channels
Channel positions : Front: L C R, Side: L R, LFE
Sampling rate : 48.0 KHz
Bit depth : 24 bits
Compression mode : Lossy
Delay relative to video : 11ms
Stream size : 1.04 GiB (11%)
Title : Original 5.1 1536 kbps
Language : English
Default : No
Forced : No

Text #1
ID : 4
Format : UTF-8
Codec ID : S_TEXT/UTF8
Codec ID/Info : UTF-8 Plain Text
Title : Ukr full [Blu-ray EUR]
Language : Ukrainian
Default : No
Forced : No

Text #2
ID : 5
Format : UTF-8
Codec ID : S_TEXT/UTF8
Codec ID/Info : UTF-8 Plain Text
Title : Eng full
Language : English
Default : No
Forced : No

Menu
00:00:00.000 : en:Chapter 1
00:02:34.988 : en:Chapter 2
00:04:51.749 : en:Chapter 3
00:09:01.249 : en:Chapter 4
00:12:21.115 : en:Chapter 5
00:14:04.801 : en:Chapter 6
00:18:33.028 : en:Chapter 7
00:21:56.982 : en:Chapter 8
00:23:24.736 : en:Chapter 9
00:26:49.773 : en:Chapter 10
00:28:37.132 : en:Chapter 11
00:30:25.657 : en:Chapter 12
00:32:48.633 : en:Chapter 13
00:36:03.369 : en:Chapter 14
00:38:33.561 : en:Chapter 15
00:41:34.533 : en:Chapter 16
00:44:38.842 : en:Chapter 17
00:48:02.629 : en:Chapter 18
00:52:10.960 : en:Chapter 19
00:55:17.480 : en:Chapter 20
01:00:14.777 : en:Chapter 21
01:03:58.084 : en:Chapter 22
01:05:48.736 : en:Chapter 23
01:08:44.036 : en:Chapter 24
01:10:47.283 : en:Chapter 25
01:12:37.144 : en:Chapter 26
01:14:01.645 : en:Chapter 27
01:19:48.575 : en:Chapter 28
01:23:09.859 : en:Chapter 29
01:25:16.736 : en:Chapter 30
01:28:04.320 : en:Chapter 31
01:30:02.229 : en:Chapter 32


Джерела та подяки:
ріп відео - Skazhutin (HDclub).

Особиста оцінка: 10 - рекомендую всім дітям та їх батькам

ЗАЛИШАЙТЕСЬ ЯКОМОГА ДОВШЕ НА РОЗДАЧІ!

СКАЧАВ САМ - ДАЙ СКАЧАТИ ІНШИМ


 Трекер:    Зареєстрований   

Завантажити / скачати мультфільм українською



відео для новачків



 Зареєстрований:   2013-09-23 19:51
 Розмір:   9.22 GB 
 Оцінка мультфільму:   7.9/10 (Голосів: 46)
   
Інші релізи
   Сімейка Крудсів / The Croods (2013) 360p DmitryA  5 / 0   865 MB   2014-11-12 18:04 
   Сімейка Крудсів / The Croods (2013) 720p-mini Drool  10 / 0   1.69 GB   2013-09-26 12:02 
   Сімейка Крудсів / The Croods (2013) 1080p 3D Ukr/Eng | Sub Ukr/Eng lnkvisitor  7 / 0   10.85 GB   2013-09-25 01:31 
   Сімейка Крудсів / The Croods (2013) Remux 1080p Ukr/Eng | Sub Ukr/Eng lnkvisitor  2 / 0   20.44 GB   2013-09-24 16:43 
   Сімейка Крудсів / The Croods (2013) Ukr/Eng | Sub Ukr/Eng Gelios  32 / 2   1.76 GB   2013-09-23 21:26 
   Сімейка Крудсів / The Croods (2013) 720p Ukr/Eng | Sub Ukr/Eng 11FrYkT  13 / 1   5.48 GB   2013-09-23 20:01 
   Сімейка Крудсів / The Croods (2013) AVC | sub Ukr/Eng DеLight  6 / 0   1.45 GB   2013-09-23 19:53 
Vovka morkovka 
Свій


З нами з: 24.11.10
Востаннє: 10.08.17
Повідомлень: 72

2014-12-13 10:28  
Хороший мультфільм для сімейного перегляду! Дитині так сподобався, що передивляється його майже щодня. Оцінка: 10/10.
kubrik13 
Новенький


З нами з: 14.11.08
Востаннє: 13.08.17
Повідомлень: 14

2017-01-20 20:27  
Не розумію, навіщо вшивати субтитри? Поясніть хто можеее!!!!!!
Anonymous 







2017-01-20 20:28  
kubrik13, тут немає "вшитих" (жорстких) субтитрів. Ці, що є тут можна вимкнути.
Ваш часовий пояс: GMT + 2 Години

Нова тема   Відповісти