Нікчемний Я / Despicable Me (2010) 720p 2xUkr/Eng | Sub Ukr/Eng

Нові коментарі

Нова тема   Відповісти
Автор Повідомлення
braveboy 
Відео Гуртом - команда HD
Відео Гуртом - команда HD


З нами з: 15.06.10
Востаннє: 13.08.17
Повідомлень: 949

2013-09-21 07:57  

Нікчемний Я / Despicable Me (2010) 720p 2xUkr/Eng | Sub Ukr/Eng




«Superbad. Superdad»


Жанр: комедія, сімейний, анімація
Країна: США


Кінокомпанія: Universal Pictures International
Режисер: П'єр Соффін, Кріс Рено, Серджо Паблос
Актори: Стів Карелл, Джейсон Сігел, Расселл Бренд, Джулі Ендрюс, Вілл Арнетт, Крістен Віг, Міранда Косгров, Дена Гайєр, Елсі Фішер, П'єр Соффін

Сюжет:
У невеликому містечку, на вулиці, де охайні будиночки оточені білими парканчиками і кущами троянд, розташувався один величезний чорний будинок, навколо якого нічого не росте. Місцеві жителі навіть не здогадуються, але глибоко під ним знаходиться велике таємне сховище. В оточенні армії маленьких посіпак ми зустрічаємо тут Гру, який планує найбільше в історії людства викрадення. Він збирається вкрасти місяць (так-так, вам не почулося: Місяць!).


Тривалість: 01:34:49
Якість: 720p
Відео:
кодек:
розмір кадру: 1280 x 692
бітрейт: 5574 кб/с

Аудіо # 1:
мова: українська
переклад: професійний дубльований
кодек: 5.1
бітрейт: 384 кб/с

Аудіо # 2:
мова: українська
переклад: багатоголосий закадровий
кодек: 2.0
бітрейт: 192 кб/с

Аудіо # 3:
мова: англійська
переклад: оригінал
кодек: 5.1
бітрейт: 640 кб/с

Переклад і озвучення виконано: LeDoyen Studio

Субтитри:
мова: українська
тип: програмні (м'які)
формат: *.srt

Субтитри:
мова: англійська
тип: програмні (м'які)
формат: *.srt
720p by braveboy
log

[info]: frame I:1390 Avg QP:12.52 size:155092
[info]: frame P:36449 Avg QP:13.91 size: 51985
[info]: frame B:98553 Avg QP:14.90 size: 18763
[info]: consecutive B-frames: 3.0% 3.6% 27.9% 27.3% 15.9% 18.0% 4.3%
[info]: mb I I16..4: 7.7% 61.0% 31.2%
[info]: mb P I16..4: 1.1% 10.0% 2.8% P16..4: 33.8% 18.3% 18.4% 1.2% 0.5% skip:14.0%
[info]: mb B I16..4: 0.1% 1.3% 0.5% B16..8: 27.1% 13.6% 5.2% direct: 7.3% skip:44.9% L0:39.7% L1:43.2% BI:17.1%
[info]: 8x8 transform intra:69.1% inter:41.2%
[info]: coded y,uvDC,uvAC intra: 87.4% 92.9% 85.5% inter: 25.3% 27.3% 18.8%
[info]: i16 v,h,dc,p: 25% 14% 8% 52%
[info]: i8 v,h,dc,ddl,ddr,vr,hd,vl,hu: 16% 15% 10% 8% 10% 10% 11% 10% 13%
[info]: i4 v,h,dc,ddl,ddr,vr,hd,vl,hu: 20% 11% 5% 8% 13% 11% 11% 9% 11%
[info]: i8c dc,h,v,p: 42% 25% 18% 15%
[info]: Weighted P-Frames: Y:4.9% UV:3.4%
[info]: ref P L0: 54.4% 6.5% 17.9% 6.2% 4.9% 3.8% 3.3% 2.2% 0.8% 0.0%
[info]: ref B L0: 72.0% 14.1% 6.0% 3.2% 2.6% 1.5% 0.7%
[info]: ref B L1: 91.9% 8.1%
[info]: kb/s:5568.27
Info
Video
ID : 1
Format : AVC
Format/Info : Advanced Video Codec
Format profile : [email protected]
Format settings, CABAC : Yes
Format settings, ReFrames : 8 frames
Codec ID : V_MPEG4/ISO/AVC
Duration : 1h 34mn
Bit rate : 5 574 Kbps
Width : 1 280 pixels
Height : 692 pixels
Display aspect ratio : 1.85:1
Frame rate mode : Constant
Frame rate : 23.976 fps
Color space : YUV
Chroma subsampling : 4:2:0
Bit depth : 8 bits
Scan type : Progressive
Bits/(Pixel*Frame) : 0.262
Stream size : 3.60 GiB (80%)
Title : Despicable Me (2010) 720p by braveboy
Writing library : core 129 r2245 bc13772
Encoding settings : cabac=1 / ref=8 / deblock=1:-3:-3 / analyse=0x3:0x133 / me=umh / subme=10 / psy=1 / psy_rd=0.85:0.00 / mixed_ref=1 / me_range=34 / chroma_me=1 / trellis=2 / 8x8dct=1 / cqm=0 / deadzone=21,11 / fast_pskip=0 / chroma_qp_offset=-2 / threads=6 / lookahead_threads=1 / sliced_threads=0 / nr=0 / decimate=0 / interlaced=0 / bluray_compat=0 / constrained_intra=0 / bframes=6 / b_pyramid=2 / b_adapt=2 / b_bias=0 / direct=1 / weightb=1 / open_gop=0 / weightp=2 / keyint=240 / keyint_min=24 / scenecut=40 / intra_refresh=0 / rc=2pass / mbtree=0 / bitrate=5574 / ratetol=1.0 / qcomp=0.60 / qpmin=10 / qpmax=51 / qpstep=4 / cplxblur=20.0 / qblur=0.5 / ip_ratio=1.40 / pb_ratio=1.30 / aq=1:1.00
Default : Yes
Forced : No

Audio #1
ID : 2
Format : AC-3
Format/Info : Audio Coding 3
Mode extension : CM (complete main)
Format settings, Endianness : Big
Codec ID : A_AC3
Duration : 1h 34mn
Bit rate mode : Constant
Bit rate : 384 Kbps
Channel(s) : 6 channels
Channel positions : Front: L C R, Side: L R, LFE
Sampling rate : 48.0 KHz
Bit depth : 16 bits
Compression mode : Lossy
Stream size : 260 MiB (6%)
Title : 5.1 @ 384 kbps [DVD]
Language : Ukrainian
Default : Yes
Forced : No

Audio #2
ID : 3
Format : AC-3
Format/Info : Audio Coding 3
Mode extension : CM (complete main)
Format settings, Endianness : Big
Codec ID : A_AC3
Duration : 1h 34mn
Bit rate mode : Constant
Bit rate : 192 Kbps
Channel(s) : 2 channels
Channel positions : Front: L R
Sampling rate : 48.0 KHz
Bit depth : 16 bits
Compression mode : Lossy
Stream size : 130 MiB (3%)
Title : 2.0 @ 192 kbps [Ukraine]
Language : Ukrainian
Default : No
Forced : No

Audio #3
ID : 4
Format : AC-3
Format/Info : Audio Coding 3
Mode extension : CM (complete main)
Format settings, Endianness : Big
Codec ID : A_AC3
Duration : 1h 34mn
Bit rate mode : Constant
Bit rate : 640 Kbps
Channel(s) : 6 channels
Channel positions : Front: L C R, Side: L R, LFE
Sampling rate : 48.0 KHz
Bit depth : 16 bits
Compression mode : Lossy
Stream size : 434 MiB (9%)
Title : 5.1 @ 640 kbps
Language : English
Default : No
Forced : No

Text #1
ID : 5
Format : UTF-8
Codec ID : S_TEXT/UTF8
Codec ID/Info : UTF-8 Plain Text
Title : Full
Language : Ukrainian
Default : No
Forced : No

Text #2
ID : 6
Format : UTF-8
Codec ID : S_TEXT/UTF8
Codec ID/Info : UTF-8 Plain Text
Title : Full
Language : English
Default : No
Forced : No

Menu
00:00:00.000 : en:00:00:00.000
00:03:22.411 : en:00:03:22.411
00:06:31.891 : en:00:06:31.891
00:12:05.099 : en:00:12:05.099
00:13:50.496 : en:00:13:50.496
00:18:38.826 : en:00:18:38.826
00:23:06.844 : en:00:23:06.844
00:25:56.221 : en:00:25:56.221
00:30:40.839 : en:00:30:40.839
00:34:48.753 : en:00:34:48.753
00:39:43.047 : en:00:39:43.047
00:43:38.366 : en:00:43:38.366
00:48:19.188 : en:00:48:19.188
00:52:52.502 : en:00:52:52.502
00:56:46.111 : en:00:56:46.111
01:02:08.016 : en:01:02:08.016
01:09:23.868 : en:01:09:23.868
01:16:25.456 : en:01:16:25.456
01:22:41.581 : en:01:22:41.581
01:27:35.375 : en:01:27:35.375
Скріншоти
Особиста оцінка: 10 - без зайвих вагань рекомендую всім!


 Трекер:    Зареєстрований   

Завантажити / скачати мультфільм українською



відео для новачків



 Зареєстрований:   2015-01-16 23:27
 Розмір:   4.49 GB 
 Оцінка мультфільму:   9.8/10 (Голосів: 96)
   
Інші релізи
   Нікчемний Я / Despicable Me (2010) 2xUkr/Eng | Sub Ukr/Eng karvai0  30 / 8   1.83 GB   2015-01-12 22:21 
   Нікчемний Я / Despicable Me (2010) (480x320) nestorpopko  2 / 0   759 MB   2012-12-16 14:20 
   Нікчемний Я / Despicable Me (2010) DVD9 Eng/Rus/Ukr | Ліцензія Beffis  1 / 0   5.85 GB   2012-04-26 17:22 
   Нікчемний Я / Despicable Me (2010) 1080p Ukr/Eng | Sub-Eng Kuzmenko  30 / 0   6.81 GB   2010-12-18 00:31 
   Нікчемний Я / Despicable Me (2010) Remux 1080p Ukr/Eng | Sub-Eng Kuzmenko  3 / 0   20.07 GB   2010-12-18 00:21 
fldd17 
Свій


З нами з: 17.03.11
Востаннє: 18.08.17
Повідомлень: 54

2013-09-21 11:59  
дякую! а релізи на 1,45 чи 2.2 GB будуть?
AS 
Свій


З нами з: 05.10.08
Востаннє: 07.08.17
Повідомлень: 103

2013-09-21 12:30  
„Він збирається вкрасти місяць (так-так, вам не почулося: місяць!).“ — Місяць з великої, ідеться ж про небесне тіло?
braveboy 
Відео Гуртом - команда HD
Відео Гуртом - команда HD


З нами з: 15.06.10
Востаннє: 13.08.17
Повідомлень: 949

2013-09-21 18:34  
AS написано:
„Він збирається вкрасти місяць (так-так, вам не почулося: місяць!).“ — Місяць з великої, ідеться ж про небесне тіло?

виправив

Додано через 1 хвилину:

fldd17 написано:
дякую! а релізи на 1,45 чи 2.2 GB будуть?

https://toloka.to/t19905

DoctorLife 
Новенький


З нами з: 19.04.10
Востаннє: 14.08.17
Повідомлень: 20

2013-10-18 02:34  
Суще безглуздя, а не фільм...
Lavr_V 
Новенький


З нами з: 29.09.08
Востаннє: 18.08.17
Повідомлень: 10

2013-10-20 23:31  
де можна скачати окремо урк. доріжку до 2 частини?
arigato-snake 
Новенький


З нами з: 03.08.13
Востаннє: 15.08.17
Повідомлень: 3

2015-01-17 09:57  
А чи є в когось 2-а частина? У 1080?
braveboy 
Відео Гуртом - команда HD
Відео Гуртом - команда HD


З нами з: 15.06.10
Востаннє: 13.08.17
Повідомлень: 949

2015-01-17 23:23  
arigato-snake написано:
А чи є в когось 2-а частина? У 1080?

немає

redoctober 
Новенький


З нами з: 06.11.14
Востаннє: 08.02.15
Повідомлень: 1

2015-01-23 15:31  
Підкажіть, будь ласка, це 2-га частина?
and1707 
Поважний учасник


З нами з: 28.09.11
Востаннє: 15.08.17
Повідомлень: 170

2015-01-23 15:47  
redoctober написано:
Підкажіть, будь ласка, це 2-га частина?

Перша з двома озвучками.

tribus 
VIP


З нами з: 22.10.14
Востаннє: 23.05.17
Повідомлень: 578

2015-01-23 15:48  
redoctober написано:
Підкажіть, будь ласка, це 2-га частина?

Ні, це перша частина.
Посилання - Нікчемний Я 2

Ваш часовий пояс: GMT + 2 Години

Нова тема   Відповісти