Євробаскет 2013 | Хорватія - Україна | Плей-офф, 1/4 фіналу | XSPORT (19.09.2013) — Український спорт

Євробаскет 2013 | Хорватія - Україна | Плей-офф, 1/4 фіналу | XSPORT (19.09.2013)

Нові коментарі

Нова тема   Відповісти
Останній раз роздавалося 5erg (2018-04-03)
Автор Повідомлення
Кіндрат Книш 
VIP


З нами з: 13.02.13
Востаннє: 20.08.18
Повідомлень: 870

2013-09-19 23:03  
Євробаскет 2013 | Хорватія - Україна | Плей-офф, 1/4 фіналу | XSPORT (19.09.2013)

Євробаскет 2013 | Хорватія - Україна | Плей-офф, 1/4 фіналу | XSPORT (19.09.2013)


Жанр: Спорт, Баскетбол
Країна: Україна

Телеканал: XSPORT
Опис:
Національна збірна України творить історію на Євробаскеті у Словенії. Подолавши тернистий шлях двох групових етапів турніру, наші баскетболісти своєю самовідданою грою заслужили право бути серед восьми найкращих команд Європи. До вашої уваги чвертфінальний матч Хорватія - Україна.


Тривалість: 01:39:55
Якість:
Відео:
кодек: 
розмір кадру: 1024х576
бітрейт: 1698 кб/с

Аудіо:
мова: українська
кодек: MP2
бітрейт: 96 кб/с
Рахунок
Хорватія - Україна 84:72 (22:22, 29:13, 19:26, 14:11)

Хорватія: Сімон (23), Богданович (14), Маркота (12)
Україна: Джетер (19 + 6 підбирань + 6 передач), Кравцов (15 + 3 блок-шота), Гладирь (13 + 9 підбирань), Натяжко (10)
Скріншоти




Джерело:
Особиста оцінка: 10 - без зайвих вагань рекомендую всім!


Золотий реліз (завантажене не впливає на рейтинг)
 Трекер:    Зареєстрований   

Завантажити / скачати торрент



відео для новачків



 Зареєстрований:   2013-09-19 23:03
 Розмір:   1.28 GB 
 Оцінка:   10/10 (Голосів: 4)
   
Vasyava 
VIP


З нами з: 26.04.10
Востаннє: 20.05.18
Повідомлень: 312

2013-09-20 03:22  
Ех .......

Andriy-and 
Новенький


З нами з: 05.07.13
Востаннє: 01.11.13
Повідомлень: 8

2013-09-20 09:20  
Vasyava
Все одно наші хлопці молодці, далеко зайшли.
Як кажуть програш приємний, як що ти виграв шлях.
Крім того, зараз ми ще будемо грати за 5-8 місця в групі і можемо виграти путівку на ЧС.

kino. 
Модератор відео


З нами з: 27.06.10
Востаннє: 20.08.18
Повідомлень: 2888

2013-09-20 17:20  
Кіндрат Книш написано:
Країна: Україна

точно? Може Словенія

Додано через 2 хвилини 5 секунд:

Кіндрат Книш написано:
кодек: ASF

lwow007 
Новенький


З нами з: 04.11.12
Востаннє: 15.11.16
Повідомлень: 3

2013-09-20 18:48  
А матч Італія-Україна буде тут викладено?
Кіндрат Книш 
VIP


З нами з: 13.02.13
Востаннє: 20.08.18
Повідомлень: 870

2013-09-20 18:49  
Написав Україна бо канал український.
Стосовно кодека - плеєр записує саме в asf і цей запис я без перекодування зберіг у контейнері (в інших не вдалося).

Додано через 42 секунди:

lwow007
За хвилин 15 викладу - чекайте.
Happy

lwow007 
Новенький


З нами з: 04.11.12
Востаннє: 15.11.16
Повідомлень: 3

2013-09-20 18:51  
Супер!Велике вам людське ДЯКУЮ)))
kino. 
Модератор відео


З нами з: 27.06.10
Востаннє: 20.08.18
Повідомлень: 2888

2013-09-20 19:02  
викладіть звіт Info
Кіндрат Книш 
VIP


З нами з: 13.02.13
Востаннє: 20.08.18
Повідомлень: 870

2013-09-20 19:12  
lwow007
Вже зробив реліз - качайте на здоров'я Happy

Додано через 6 хвилин 50 секунд:

kino.
Info
General
Unique ID : 324915992473961808744594751254595277329 (0xF4708B3F19C6A8AB9954470A987E9211)
Complete name : D:\!!!na rozdachu\Eurobasket_2013_Croatia-Ukraine_19.09.13.
Format :
Format version : Version 2
File size : 1.28 GiB
Duration : 1h 39mn
Overall bit rate : 1 831 Kbps
Writing application : Lavf54.29.104
Writing library : Lavf54.29.104

Video
ID : 1
Format : AVC
Format/Info : Advanced Video Codec
Format profile : [email protected]
Format settings, CABAC : Yes
Format settings, ReFrames : 4 frames
Codec ID : V_MPEG4/ISO/AVC
Duration : 1h 39mn
Bit rate : 1 698 Kbps
Width : 1 024 pixels
Height : 576 pixels
Display aspect ratio : 16:9
Frame rate mode : Constant
Frame rate : 25.084 fps
Original frame rate : 25.000 fps
Color space : YUV
Chroma subsampling : 4:2:0
Bit depth : 8 bits
Scan type : Progressive
Bits/(Pixel*Frame) : 0.115
Stream size : 1.19 GiB (93%)
Default : Yes
Forced : No

Audio
ID : 2
Format : MPEG Audio
Format version : Version 1
Format profile : Layer 3
Mode : Joint stereo
Mode extension : MS Stereo
Codec ID : A_MPEG/L2
Codec ID/Hint : MP2
Duration : 1h 39mn
Bit rate mode : Constant
Bit rate : 96.0 Kbps
Channel(s) : 2 channels
Sampling rate : 48.0 KHz
Compression mode : Lossy
Delay relative to video : 10ms
Stream size : 68.6 MiB (5%)
Default : Yes
Forced : No

ТОЛЯН 
Поважний учасник


З нами з: 01.07.11
Востаннє: 25.06.17
Повідомлень: 242

2013-09-20 19:30  
звіт Info каже що кодек AVC тож виправ на 

звідки писав і чим

Кіндрат Книш 
VIP


З нами з: 13.02.13
Востаннє: 20.08.18
Повідомлень: 870

2013-09-20 21:23  
ТОЛЯН
Cопкастом пишу, з livetv.

Ваш часовий пояс: GMT + 2 Години

Нова тема   Відповісти