Мами застрягли на Марсі / Mars Needs Moms (2011) 1080p 3D Ukr/Eng | Sub Ukr/Eng

Нові коментарі

Нова тема   Відповісти
Автор Повідомлення
lnkvisitor 
Новенький


З нами з: 15.09.13
Востаннє: 05.06.17
Повідомлень: 9

2013-09-18 13:33  
Мами застрягли на Марсі / Mars Needs Moms (2011) 1080p 3D Ukr/Eng | Sub Ukr/Eng

Мами застрягли на Марсі / Mars Needs Moms (2011) 1080p 3D Ukr/Eng | Sub Ukr/Eng


Жанр: фантастика, комедія, пригодницький, анімація
Країна: США



Кінокомпанія: ImageMovers, Walt Disney Productions; мейджор – Buena Vista Sony Pictures Releasing
Режисер: Саймон Веллс
Актори: Сет Ґрін, Ден Фоґлер, Джоан К’юзак, Елізабет Арнуа, Мінді Стерлінґ

Сюжет:
Їсти мерзенну брокколі, виносити сміття, рано лягати спати - кому взагалі потрібні мами, що змушують це робити? Так думав Майло, поки не виявив, що його маму викрали марсіани. Ось тут і виявилося, що йому належить відправитися на іншу планету, щоб знайти маму і повернути її додому.


Тривалість: 01:28:04
Якість: 1080p
Формат 3D: Half OverUnder / Вертикальна анаморфна стереопара
Порядок ракурсів: Лівий ракурс перший
Відео:
кодек:
розмір кадру: 1920х1080
бітрейт: 6852 кб/с

Аудіо # 1:
мова: українська
переклад: професійний дубльований
кодек: 5.1
бітрейт: 384 кб/с

Джерело озвучення: DVD

Аудіо # 2:
мова: англійська
переклад: оригінал
кодек: 5.1
бітрейт: 640 кб/с

Субтитри:
мова: українська
тип: програмні (м'які)
формат: *.srt

Субтитри:
мова: англійська
тип: програмні (м'які)
формат: *.srt
Info
General
Unique ID : 205729983223906501876489005425406486277 (0x9AC6274CC0FB16682514B2A50DE7A705)
Complete name : Mars.Needs.Moms.2011..1080p.Ukr.Eng.3D.
Format :
Format version : Version 4 / Version 2
File size : 4.95 GiB
Duration : 1h 28mn
Overall bit rate : 8 044 Kbps
Movie name : Мами застрягли на Марсі / Mars Needs Moms (2011) 1080p Ukr/Eng | Sub Ukr/Eng | 3D (Rip by Ash61)
Encoded date : UTC 2010-02-22 21:41:31
Writing application : mkvmerge v6.1.0 ('Old Devil') built on Apr 14 2013 12:26:22
Writing library : libebml v1.3.0 + libmatroska v1.4.0

Video
ID : 1
Format : AVC
Format/Info : Advanced Video Codec
Format profile : [email protected]
Format settings, CABAC : Yes
Format settings, ReFrames : 4 frames
Codec ID : V_MPEG4/ISO/AVC
Duration : 1h 28mn
Bit rate : 6 860 Kbps
Width : 1 920 pixels
Height : 1 080 pixels
Display aspect ratio : 16:9
Frame rate : 23.976 fps
Color space : YUV
Chroma subsampling : 4:2:0
Bit depth : 8 bits
Scan type : Progressive
Bits/(Pixel*Frame) : 0.138
Stream size : 4.22 GiB (85%)
Title : Мами застрягли на Марсі (2011) 1080p 3D | Rip by Ash61
Writing library : core 113 r1884 7313bb5
Encoding settings : cabac=1 / ref=4 / deblock=1:-3:-3 / analyse=0x3:0x113 / me=umh / subme=9 / psy=1 / psy_rd=1.00:0.15 / mixed_ref=1 / me_range=16 / chroma_me=1 / trellis=2 / 8x8dct=1 / cqm=0 / deadzone=21,11 / fast_pskip=1 / chroma_qp_offset=-3 / threads=3 / sliced_threads=0 / nr=0 / decimate=1 / interlaced=0 / constrained_intra=0 / bframes=6 / b_pyramid=2 / b_adapt=2 / b_bias=0 / direct=3 / weightb=1 / open_gop=0 / weightp=2 / keyint=250 / keyint_min=23 / scenecut=40 / intra_refresh=0 / rc_lookahead=60 / rc=crf / mbtree=1 / crf=18.0 / qcomp=0.70 / qpmin=1 / qpmax=51 / qpstep=4 / ip_ratio=1.40 / aq=1:1.00
Default : Yes
Forced : No

Audio #1
ID : 2
Format : AC-3
Format/Info : Audio Coding 3
Mode extension : CM (complete main)
Codec ID : A_AC3
Duration : 1h 28mn
Bit rate mode : Constant
Bit rate : 384 Kbps
Channel(s) : 6 channels
Channel positions : Front: L C R, Side: L R, LFE
Sampling rate : 48.0 KHz
Bit depth : 16 bits
Compression mode : Lossy
Stream size : 242 MiB (5%)
Title : Українська (дубляж)
Language : Ukrainian
Default : Yes
Forced : No

Audio #2
ID : 3
Format : AC-3
Format/Info : Audio Coding 3
Mode extension : CM (complete main)
Codec ID : A_AC3
Duration : 1h 28mn
Bit rate mode : Constant
Bit rate : 640 Kbps
Channel(s) : 6 channels
Channel positions : Front: L C R, Side: L R, LFE
Sampling rate : 48.0 KHz
Bit depth : 16 bits
Compression mode : Lossy
Stream size : 403 MiB (8%)
Title : English (original)
Language : English
Default : No
Forced : No

Text #1
ID : 4
Format : UTF-8
Codec ID : S_TEXT/UTF8
Codec ID/Info : UTF-8 Plain Text
Title : Українські (повні)
Language : Ukrainian
Default : Yes
Forced : No

Text #2
ID : 5
Format : UTF-8
Codec ID : S_TEXT/UTF8
Codec ID/Info : UTF-8 Plain Text
Title : Англійські (повні)
Language : English
Default : No
Forced : No

Menu
00:00:00.000 : :01
00:04:04.578 : :02
00:09:15.013 : :03
00:13:56.836 : :04
00:19:13.402 : :05
00:28:13.901 : :06
00:34:29.776 : :07
00:40:19.250 : :08
00:47:15.624 : :09
00:56:49.781 : :10
01:09:03.348 : :11
01:21:25.422 : :12
Скріншоти












Джерело:
Особиста оцінка: 0 - не дивився


 Трекер:    Зареєстрований   

Завантажити / скачати мультфільм українською



відео для новачків



 Зареєстрований:   2013-09-18 13:43
 Розмір:   4.95 GB 
 Оцінка мультфільму:   8.4/10 (Голосів: 12)
   
akon111 
Відео Гуртом - запис з ТБ
Відео Гуртом - запис з ТБ


З нами з: 28.08.09
Востаннє: 17.08.17
Повідомлень: 1220

2013-09-18 13:44  
анонси розміщують тільки учасники Відео Гуртом
Drool 
VIP


З нами з: 17.04.10
Востаннє: 23.08.17
Повідомлень: 1376

2013-09-18 13:50  
akon111 написано:
анонси розміщують тільки учасники Відео Гуртом

Я не учасник цієї групи. Мені прибрати свій анонс?
Треба тоді заборонити не учасникам цієї групи створювати анонси.

igor911 
Відео Гуртом
Відео Гуртом


З нами з: 18.01.08
Востаннє: 23.08.17
Повідомлень: 7339

2013-09-18 14:22  
Drool написано:
Треба тоді заборонити не учасникам цієї групи створювати анонси.

Раніше так і було, пам"ятаю, якось хотів створити тему - не вдалося.

akon111 
Відео Гуртом - запис з ТБ
Відео Гуртом - запис з ТБ


З нами з: 28.08.09
Востаннє: 17.08.17
Повідомлень: 1220

2013-09-19 14:11  
Drool написано:
Я не учасник цієї групи. Мені прибрати свій анонс?


просто май на увазі..бо можуть видалити

Sender 
Новенький


З нами з: 22.03.09
Востаннє: 01.07.17
Повідомлень: 20

2014-07-04 03:41  
Шановне товариство! Чи може хтось стати на роздачу?
Sender 
Новенький


З нами з: 22.03.09
Востаннє: 01.07.17
Повідомлень: 20

2014-07-06 01:33  
Щіро дякую, Flashblind
Ваш часовий пояс: GMT + 2 Години

Нова тема   Відповісти