Лісова братія / Over the Hedge (2006) 720p Ukr/Eng | Sub Eng

Нові коментарі

Нова тема   Відповісти
Автор Повідомлення
braveboy 
Відео Гуртом - команда HD
Відео Гуртом - команда HD


З нами з: 15.06.10
Востаннє: 23.08.17
Повідомлень: 949

2013-09-14 06:09  

Лісова братія / Over the Hedge (2006) 720p Ukr/Eng | Sub Eng


Лісова братія / Over the Hedge (2006) 720p Ukr/Eng | Sub Eng


«Хлопці, треба поділитися!»


Жанр: анімація, комедія, пригодницький
Країна: США



Кінокомпанія: DreamWorks Animation, Pacific Data Images (PDI)
Режисер: Тім Джонсон, Кері Кіркпатрік
Актори: Брюс Уілліс, Гері Шендлінг, Стів Карел, Томас Хейден Черч, Омід Джалілі, Елісон Джені, Авріл Лавін, Юджин Леві, Нік Нолті, Кетрін О’Хара, Уільям Шетнер, Уонда Сайкс.

Сюжет:
Допитливий єнот і його найкращий друг – черепаха-меланхолік вирішили дізнатися, що ж знаходиться за живоплотом, який відокремлює їх лісозону від галасливих вулиць, наповнених дивними тваринами, яких називають людьми. Що чекає цих допитливих хлопців на вулицях міста – навіть страшно собі уявити.



Тривалість: 01:19:48
Якість: 720p
Відео:
кодек:
розмір кадру: 1280 x 720
бітрейт: 5458 кб/с

Аудіо # 1:
мова: українська
переклад: багатоголосий закадровий
кодек: 5.1
бітрейт: 384 кб/с

Аудіо # 2:
мова: англійська
переклад: оригінал
кодек: 5.1
бітрейт: 448 кб/с

Субтитри:
мова: англійська
тип: програмні (м'які)
формат: *.srt

720p by braveboy
log

[info]: frame I:1213 Avg QP:13.10 size:127280
[info]: frame P:34383 Avg QP:14.53 size: 51186
[info]: frame B:84081 Avg QP:16.19 size: 16078
[info]: consecutive B-frames: 4.4% 5.6% 13.7% 60.4% 8.5% 6.4% 1.0%
[info]: mb I I16..4: 7.8% 67.2% 24.9%
[info]: mb P I16..4: 3.0% 18.5% 3.5% P16..4: 36.1% 16.2% 15.9% 1.0% 0.4% skip: 5.4%
[info]: mb B I16..4: 0.4% 2.4% 0.6% B16..8: 29.8% 12.2% 4.1% direct: 4.9% skip:45.7% L0:38.2% L1:47.6% BI:14.3%
[info]: 8x8 transform intra:72.7% inter:52.7%
[info]: coded y,uvDC,uvAC intra: 84.8% 86.3% 74.2% inter: 28.8% 28.0% 14.5%
[info]: i16 v,h,dc,p: 36% 18% 7% 39%
[info]: i8 v,h,dc,ddl,ddr,vr,hd,vl,hu: 12% 13% 10% 8% 11% 11% 11% 11% 13%
[info]: i4 v,h,dc,ddl,ddr,vr,hd,vl,hu: 11% 11% 6% 8% 14% 13% 13% 10% 13%
[info]: i8c dc,h,v,p: 46% 23% 18% 13%
[info]: Weighted P-Frames: Y:5.2% UV:3.5%
[info]: ref P L0: 62.6% 6.4% 15.0% 4.8% 3.7% 3.0% 2.5% 1.7% 0.4% 0.0%
[info]: ref B L0: 81.5% 9.8% 3.9% 1.9% 1.5% 0.9% 0.5%
[info]: ref B L1: 95.1% 4.9%
[info]: kb/s:5458.38
Info
Video
ID : 1
Format : AVC
Format/Info : Advanced Video Codec
Format profile : [email protected]
Format settings, CABAC : Yes
Format settings, ReFrames : 8 frames
Codec ID : V_MPEG4/ISO/AVC
Duration : 1h 19mn
Bit rate : 5 458 Kbps
Width : 1 280 pixels
Height : 720 pixels
Display aspect ratio : 16:9
Frame rate mode : Constant
Frame rate : 25.000 fps
Color space : YUV
Chroma subsampling : 4:2:0
Bit depth : 8 bits
Scan type : Progressive
Bits/(Pixel*Frame) : 0.237
Stream size : 2.97 GiB (85%)
Title : Over the Hedge (2006) 720p by braveboy
Writing library : core 125 r2208 d9d2288
Encoding settings : cabac=1 / ref=8 / deblock=1:-3:-3 / analyse=0x3:0x133 / me=umh / subme=9 / psy=1 / psy_rd=0.85:0.00 / mixed_ref=1 / me_range=32 / chroma_me=1 / trellis=1 / 8x8dct=1 / cqm=0 / deadzone=21,11 / fast_pskip=0 / chroma_qp_offset=-2 / threads=6 / lookahead_threads=1 / sliced_threads=0 / nr=0 / decimate=0 / interlaced=0 / bluray_compat=0 / constrained_intra=0 / bframes=6 / b_pyramid=2 / b_adapt=2 / b_bias=0 / direct=1 / weightb=1 / open_gop=0 / weightp=2 / keyint=250 / keyint_min=24 / scenecut=40 / intra_refresh=0 / rc=2pass / mbtree=0 / bitrate=5458 / ratetol=1.0 / qcomp=0.60 / qpmin=10 / qpmax=51 / qpstep=4 / cplxblur=20.0 / qblur=0.5 / ip_ratio=1.40 / pb_ratio=1.30 / aq=1:1.00
Default : Yes
Forced : No

Audio #1
ID : 2
Format : AC-3
Format/Info : Audio Coding 3
Mode extension : CM (complete main)
Format settings, Endianness : Big
Codec ID : A_AC3
Duration : 1h 19mn
Bit rate mode : Constant
Bit rate : 384 Kbps
Channel(s) : 6 channels
Channel positions : Front: L C R, Side: L R, LFE
Sampling rate : 48.0 KHz
Bit depth : 16 bits
Compression mode : Lossy
Stream size : 219 MiB (6%)
Title : 5.1 @ 384 kbps [Novy]
Language : Ukrainian
Default : Yes
Forced : No

Audio #2
ID : 3
Format : AC-3
Format/Info : Audio Coding 3
Mode extension : CM (complete main)
Format settings, Endianness : Big
Codec ID : A_AC3
Duration : 1h 19mn
Bit rate mode : Constant
Bit rate : 448 Kbps
Channel(s) : 6 channels
Channel positions : Front: L C R, Side: L R, LFE
Sampling rate : 48.0 KHz
Bit depth : 16 bits
Compression mode : Lossy
Stream size : 256 MiB (7%)
Title : 5.1 @ 448 kbps
Language : English
Default : No
Forced : No

Text #1
ID : 4
Format : UTF-8
Codec ID : S_TEXT/UTF8
Codec ID/Info : UTF-8 Plain Text
Title : Full
Language : English
Default : No
Forced : No

Text #2
ID : 5
Format : UTF-8
Codec ID : S_TEXT/UTF8
Codec ID/Info : UTF-8 Plain Text
Title : Commentary
Language : English
Default : No
Forced : No
Скріншоти


 Трекер:    Зареєстрований   

Завантажити / скачати мультфільм українською



відео для новачків



 Зареєстрований:   2013-09-14 06:09
 Розмір:   3.51 GB 
 Оцінка мультфільму:   9.9/10 (Голосів: 13)
   
igor911 
Відео Гуртом
Відео Гуртом


З нами з: 18.01.08
Востаннє: 24.08.17
Повідомлень: 7345

2013-09-14 07:45  
А де ділась друга доріжка від ТТП?
dima77777 
Поважний учасник


З нами з: 29.11.12
Востаннє: 23.08.17
Повідомлень: 223

2013-09-14 15:01  
Дякую за мультик
braveboy 
Відео Гуртом - команда HD
Відео Гуртом - команда HD


З нами з: 15.06.10
Востаннє: 23.08.17
Повідомлень: 949

2013-09-14 15:35  
igor911 написано:
А де ділась друга доріжка від ТТП?

її потрібно було підганяти під ріп а я немаю часу на це Happy

Ваш часовий пояс: GMT + 2 Години

Нова тема   Відповісти