Подорож містами Закарпаття (путівник-довідник) -AVC

Нові коментарі

Нова тема   Відповісти
Останній раз роздавалося Галамай (2017-10-23)
Автор Повідомлення
Kanelo 
Свій


З нами з: 22.10.09
Востаннє: 21.10.17
Повідомлень: 132

2013-09-08 13:42  
Подорож містами Закарпаття (путівник-довідник) -AVC


Подорож містами Закарпаття (путівник-довідник) -AVC


Жанр: документальний
Країна: Україна

Телеканал / кіностудія: Г.О."Транскарпатія"
Сюжет:
Невеличка фотоекскурсія містами Закарпаття. Виконано у вигляді слайд шоу з наданням короткої історичної інформації. Проводиться огляд таких міст: Ужгород, Мукачево, Воловець, Тячів, Свалява, Іршава, Перечин, Хуст, Берегово, Виноградів, Чоп, Великий Березний, Міжгір'я, Рахів.


Тривалість: 00:39:32
Якість: -AVC
Відео:
кодек:
розмір кадру: 720 х 480
бітрейт: 1 000 кб/с

Аудіо:
кодек: AC-3
бітрейт: 384 кб/с
мова: українська
переклад: оригінал

Скріншоти




Звіт Info
General
Unique ID : 238853466395672813500878202051256058479 (0xB3B1811B7502A6309B8CCFBEE393026F)
Complete name : D:\Media\Фільми\Документалки\Подорож містами Закарпаття (путівник-довідник)\Подорож містами Закарпаття (путівник-довідник)(Hurtom.com).
Format :
Format version : Version 2
File size : 392 MiB
Duration : 39mn 32s
Overall bit rate : 1 386 Kbps
Encoded date : UTC 2013-08-17 21:00:52
Writing application : mkvmerge v6.2.0 ('Promised Land') built on Apr 28 2013 12:22:01
Writing library : libebml v1.3.0 + libmatroska v1.4.0

Video
ID : 1
Format : AVC
Format/Info : Advanced Video Codec
Format profile : High@L3.0
Format settings, CABAC : Yes
Format settings, ReFrames : 4 frames
Codec ID : V_MPEG4/ISO/AVC
Duration : 39mn 32s
Bit rate : 1 000 Kbps
Width : 720 pixels
Height : 480 pixels
Display aspect ratio : 4:3
Original display aspect ratio : 4:3
Frame rate mode : Constant
Frame rate : 29.970 fps
Standard : NTSC
Color space : YUV
Chroma subsampling : 4:2:0
Bit depth : 8 bits
Scan type : Progressive
Bits/(Pixel*Frame) : 0.097
Stream size : 276 MiB (70%)
Writing library : core 133 r2334 a3ac64b
Encoding settings : cabac=1 / ref=4 / deblock=1:0:0 / analyse=0x3:0x113 / me=umh / subme=7 / psy=1 / psy_rd=1.00:0.00 / mixed_ref=1 / me_range=16 / chroma_me=1 / trellis=1 / 8x8dct=1 / cqm=0 / deadzone=21,11 / fast_pskip=1 / chroma_qp_offset=-2 / threads=12 / lookahead_threads=3 / sliced_threads=0 / nr=0 / decimate=1 / interlaced=0 / bluray_compat=0 / constrained_intra=0 / bframes=16 / b_pyramid=2 / b_adapt=2 / b_bias=0 / direct=1 / weightb=1 / open_gop=0 / weightp=2 / keyint=300 / keyint_min=29 / scenecut=40 / intra_refresh=0 / rc_lookahead=40 / rc=2pass / mbtree=1 / bitrate=1000 / ratetol=1.0 / qcomp=0.60 / qpmin=10 / qpmax=69 / qpstep=4 / cplxblur=20.0 / qblur=0.5 / ip_ratio=1.40 / aq=1:1.00
Default : Yes
Forced : No

Audio
ID : 2
Format : AC-3
Format/Info : Audio Coding 3
Mode extension : CM (complete main)
Format settings, Endianness : Big
Codec ID : A_AC3
Duration : 39mn 32s
Bit rate mode : Constant
Bit rate : 384 Kbps
Channel(s) : 2 channels
Channel positions : Front: L R
Sampling rate : 48.0 KHz
Bit depth : 16 bits
Compression mode : Lossy
Stream size : 109 MiB (28%)
Language : Ukrainian
Default : Yes
Forced : No

Menu
00:00:00.000 : en:Chapter 01

Копірайт

Текст підготовив: вчитель історії ЗОШ №20 м. Мукачево, голова міського осередку Г.О."Транскарпатія" -- Метзгер В.М., тел.: +380992954638
Фото: голова фотоклубу "Горизонт" у складі Г.О."Транскарпатія" -- Гудак О.М., тел.: +380502526749; Гудак С.О. член НСФХУ та інші фотографи.
transzakarpatia@mail.ru
Придбав диск у Мукачівському замку


Джерело:
Особиста оцінка: 5 - якщо ліньки ґуґлити, то можна подивитись


 Трекер:    Зареєстрований   

Завантажити / скачати фільм українською



відео для новачків



 Зареєстрований:   2013-09-08 13:42
 Розмір:   392 MB 
 Оцінка фільму:   9.7/10 (Голосів: 3)
   
Ваш часовий пояс: GMT + 2 Години

Нова тема   Відповісти