Титанія / Tytania / Titania / Taitania / タイタニア (1-26 з 26) (2008-2009) 720p Jap | sub UKR/RUS/ENG

Нові коментарі

Нова тема   Відповісти
Останній раз роздавалося ZASE (2017-03-17)
Автор Повідомлення
Anonymous 







2013-09-06 01:19  
Титанія / Tytania / Titania / Taitania / タイタニア (1-26 з 26) (2008-2009) 720p Jap | sub UKR/RUS/ENG

Титанія / Tytania / Titania / Taitania / タイタニア (1-26 з 26) (2008-2009) 720p Jap | sub UKR/RUS/ENG


Жанр: фантастика, драма, пригоди, романтика, космоопера
Країна: Японія



Кінокомпанія: Artland
Режисер: Ішіґуро Нобуро
Актори: Коніші Кацуюкі, Міяке Кента, Oохара Такаші, Накано Юуто, Кусао Такеші, Умедзу Хідеюкі, Кондоо Такаші, Хоші Сооічіроо, Міясака Шюнзоо, Інада Тецу

Сюжет:
У далекому майбутньому людські міста будуть й у найвіддаленіших куточках галактики. Під владою Варданської імперії об'єднані десятки планет. Проте, імперія тримається на військовій силі аристократичного титанійського роду, якого боїться навіть сам імператор.
Керують Титанією талановиті полководці і політичні діячі, гідні як ненависті, так і захоплення багатьох людей. Вони звикли перемагати, тому для них стає цілковитою несподіванкою супротив невеличкого флоту маленької планети на окраїні галактики. Перемога нікому невідомого адмірала Ван Хьюліка є тим прецедентом, який запалить вогонь повстань й в інших країнах.
Ця історія про сильних непересічних особистостей. Кожному з героїв доводиться робити вибір в непростих ситуаціях, коли часто не знаєш, до чого врешті-решт призведуть твої вчинки. Водночас ця вдумлива розповідь присвячена проблемам і психології влади і свободи, розвитку і занепаду держав, пошуку шляхів до зміни майбутнього і пізнання власної душі.


Тривалість: 00:24:32
Список епізодів:

1 - Битва при Цербері
2 - Чотири герцоги Уранібургу
3 - Вимоги до героя
4 - Рішення Ліри
5 - Прагнення і гордість
6 - Бій при Сиракузах
7 - Під полум'яним стягом
8 - Дві зустрічі
9 - Вітерець
10 - Кінець Еурії
11 - Рішення Хьюліка
12 - Вторгнення на Енменталь
13 - Кінець і початок
14 - Заколот на планеті Лютіх
15 - Наче зернятко жита
16 - Атака у відповідь
17 - Надто велика ціна
18 - Орбітальна в'язниця Хронос
19 - Справа Радоморза
20 - Штурм Хроноса
21 - Зустріч на Естарі
22 - З чого почалося честолюбство
23 - Пустельна миша
24 - Звитяжний дідуган
25 - Лютий бій на палючому піску
26 - Скорботна пісня за упокій душі
Якість:
Відео:
кодек: (Hi10p)
розмір кадру: 1280 х 720
бітрейт: ~2000 кб/с

Аудіо:
мова: японська
переклад: оригінал
кодек: 2.0
бітрейт: 448 кб/с

Субтитри:
мова: українська | Переклад з англійської: Наталія Дев'ятко
тип: програмні (м'які)
формат: *.ass

Субтитри:
мова: російська
тип: програмні (м'які)
формат: *.ass

Субтитри:
мова: англійська | ANBU
тип: пререндерні
формат: *.ass
MI

General
Unique ID : 219192441535735329393157580923368913935 (0xA4E6EDBD8F4B418495F6345D3BEC3C0F)
Complete name : F:\RIP\Tytania\Tytania [ 720p]\[Sensetivity-raws] Tytania - 01 [ 1280x720 (Hi10p) ].
Format :
Format version : Version 4 / Version 2
File size : 522 MiB
Duration : 24mn 31s
Overall bit rate : 2 976 Kbps
Movie name : Tytania - 01 - Battle at Cerberus
Encoded date : UTC 2013-08-14 18:07:40
Writing application : mkvmerge v6.2.0 ('Promised Land') built on Apr 28 2013 12:22:01
Writing library : libebml v1.3.0 + libmatroska v1.4.0
Attachment : Yes

Video
ID : 1
Format : AVC
Format/Info : Advanced Video Codec
Format profile : High [email protected]
Format settings, CABAC : Yes
Format settings, ReFrames : 8 frames
Codec ID : V_MPEG4/ISO/AVC
Duration : 24mn 31s
Bit rate : 2 468 Kbps
Width : 1 280 pixels
Height : 720 pixels
Display aspect ratio : 16:9
Frame rate mode : Constant
Frame rate : 23.976 fps
Color space : YUV
Chroma subsampling : 4:2:0
Bit depth : 10 bits
Scan type : Progressive
Bits/(Pixel*Frame) : 0.112
Stream size : 433 MiB (83%)
Title : Sensetivity-raws
Writing library : core 125 r2200 999b753
Encoding settings : cabac=1 / ref=8 / deblock=1:0:0 / analyse=0x3:0x113 / me=umh / subme=9 / psy=1 / psy_rd=1.00:0.00 / mixed_ref=1 / me_range=30 / chroma_me=1 / trellis=2 / 8x8dct=1 / cqm=0 / deadzone=21,11 / fast_pskip=1 / chroma_qp_offset=-2 / threads=6 / lookahead_threads=1 / sliced_threads=0 / nr=0 / decimate=1 / interlaced=0 / bluray_compat=0 / constrained_intra=0 / bframes=10 / b_pyramid=2 / b_adapt=2 / b_bias=0 / direct=3 / weightb=1 / open_gop=0 / weightp=2 / keyint=240 / keyint_min=12 / scenecut=40 / intra_refresh=0 / rc_lookahead=40 / rc=crf / mbtree=1 / crf=15.0 / qcomp=0.60 / qpmin=0 / qpmax=81 / qpstep=7 / ip_ratio=1.40 / aq=2:0.60
Language : Japanese
Default : Yes
Forced : No

Audio
ID : 2
Format : AC-3
Format/Info : Audio Coding 3
Mode extension : CM (complete main)
Format settings, Endianness : Big
Codec ID : A_AC3
Duration : 24mn 31s
Bit rate mode : Constant
Bit rate : 448 Kbps
Channel(s) : 2 channels
Channel positions : Front: L R
Sampling rate : 48.0 KHz
Bit depth : 16 bits
Compression mode : Lossy
Stream size : 78.6 MiB (15%)
Title : 2.0 448 kbps
Language : Japanese
Default : Yes
Forced : No

Text
ID : 3
Format : ASS
Codec ID : S_TEXT/ASS
Codec ID/Info : Advanced Sub Station Alpha
Compression mode : Lossless
Title : ANBU
Language : English
Default : Yes
Forced : No
Скріншоти












Джерело:
Особиста оцінка: 7 - моїй подрузі не сподобалося


Золотий реліз (завантажене не впливає на рейтинг)
 Трекер:    Зареєстрований   

Завантажити / скачати аніме українською



відео для новачків



 Зареєстрований:   2013-09-06 01:19
 Розмір:   10.78 GB 
 Оцінка аніме:   5.5/10 (Голосів: 2)
   
Hentaihunter 
VIP


З нами з: 16.08.08
Востаннє: 17.08.17
Повідомлень: 2361

2013-09-06 13:07  
NeetScrool написано:
моїй подрузі не сподобалося

Мабуть через наявність російських сабів. :)

Anonymous 







2013-09-06 13:54  
Hentaihunter написано:
Мабуть через наявність російських сабів. Happy

Я знав, що лунатимуть такі закиди але бажання зробити універсальну роздачу взяло гору.
Дана роздача існує в такому ж вигляді і на рутрекері (причому на рутрекері я не бачив призивів прибрати укр саби) і на няшці, що має додати їй живучості та "швидкості".

Ваш часовий пояс: GMT + 2 Години

Нова тема   Відповісти