Леді і Бродяга 2: Пригоди Пірата / Lady and the Tramp II: Scamp's Adventure (2001) 720p Ukr/Eng | Sub Eng

Нові коментарі

Нова тема   Відповісти
Автор Повідомлення
Anonymous 







2013-09-02 11:41  
Леді і Бродяга 2: Пригоди Пірата / Lady and the Tramp II: Scamp's Adventure (2001) 720p Ukr/Eng | Sub Eng



Оригінальний постер


Жанр: анімація, мелодрама, сімейний, пригодницький
Країна: США, Австралія



Кінокомпанія: Walt Disney Pictures, Walt Disney Television Animation, Walt Disney Animation Australia
Режисер: Даррел Руні / Darrell Rooney, Джаннін Расел / Jeannine Roussel
Актори: Скотт Вулф / Scott Wolf, Алісса Мілано / Alyssa Milano, Чазз Пальмінтері / Chazz Palminteri, Джефф Беннетт / Jeff Bennett, Джоді Бенсон / Jodi Benson, Білл Фагербаккі / Bill Fagerbakke, Мікі Руні / Mickey Rooney, Бронсон Пінчот / Bronson Pinchot, Кеті Моріарті / Cathy Moriarty, Мері Кей Бергман / Mary Kay Bergman та інші

Сюжет:
Продовження класичного диснеївського мультфільму про зворушливі стосунки породистої Лессі та безпритульного собаки. Вони вже батьки цілої зграї цуценят - трьох працьовитих дівчаток і одного бешкетника цуценяти-хлопчика на прізвисько Пірат.
В пошуках ризику і "реального" собачого життя Пірат тікає з дому і зустрічає Янгола, Бастера та його ватагу. Разом з вірними друзями він переживе багато комічних ситуацій, а також зіткнеться з небезпеками, які цілком можуть підстерігати цуцика на вулицях великого міста. Хоч Пірат і знайшов ризик, проте його думки всеодно повертають до дому та родини.


рейтинг MPAA: G - нема вікових обмежень
Вікова категорія: 0+

Тривалість: 01:09:02
Якість: 720p
Відео:
джерело: Lady and the Tramp II: Scamp's Adventure 2001 1080p EUR Blu-ray AVC -HD MA 5.1-BLUEBIRD
кодек:
розмір кадру: 1280 х 720
бітрейт: 1901 кб/с, crf=18.8
порівняння скріншотів

Encode by EucHD
ENCODER...........: KonEl
RELEASE DATE......: 09/03/2012
SOURCE VS ENCODE
Аудіо # 1:
мова: українська - аматорська озвучка ТО "Діатрема"
переклад: багатоголосий закадровий
Ролі озвучили: Олексій Петренко (Mister rock), Олена Цинтила, Вадим Пелех, Соломія Вітвицька та Юлія Лорд
кодек: 2.0
бітрейт: 192 кб/с
Інформація про озвучення

Координатор озвучення: Мирон Товстюк
Переклад: Анна Чепура
Редагування тексту: Ольга Кушнір
Аудіо # 2:
мова: англійська
переклад: оригінал
кодек: 5.1
бітрейт: 640 кб/с

Субтитри #1:
мова: англійська (повні)
тип: програмні (м'які)
формат: *.srt

Субтитри #2:
мова: англійська (повні, SDH)
тип: програмні (м'які)
формат: *.srt

Збережено оригінальні розділи, як на Blu-ray.
Info
General
Unique ID : 206348261548253642072162498055895718420 (0x9B3D3AC654F0D081A5D5D56250BB1A14)
Complete name : Lady.and.the.Tramp.2. Scamp's.Adventure.2001..720p.Ukr.Eng.[sub.Eng].
Format :
Format version : Version 4 / Version 2
File size : 1.34 GiB
Duration : 1h 9mn
Overall bit rate : 2 788 Kbps
Movie name : Леді і Бродяга 2: Пригоди Пірата / Lady and the Tramp II: Scamp's Adventure / Леди и бродяга 2: Приключения Шалуна (2001) [720p]
Encoded date : UTC 2013-09-02 05:53:27
Writing application : mkvmerge v6.3.0 ('You can't stop me!') built on Jun 28 2013 20:09:41
Writing library : libebml v1.3.0 + libmatroska v1.4.0

Video
ID : 1
Format : AVC
Format/Info : Advanced Video Codec
Format profile : [email protected]
Format settings, CABAC : Yes
Format settings, ReFrames : 9 frames
Codec ID : V_MPEG4/ISO/AVC
Duration : 1h 9mn
Bit rate : 1 901 Kbps
Width : 1 280 pixels
Height : 720 pixels
Display aspect ratio : 16:9
Frame rate mode : Constant
Frame rate : 23.976 fps
Color space : YUV
Chroma subsampling : 4:2:0
Bit depth : 8 bits
Scan type : Progressive
Bits/(Pixel*Frame) : 0.086
Stream size : 939 MiB (68%)
Title : Леді і Бродяга 2: Пригоди Пірата / Lady and the Tramp II: Scamp's Adventure / Леди и бродяга 2: Приключения Шалуна (2001) [EucHD, HQ-ViDEO]
Writing library : core 120 r2164 da19765
Encoding settings : cabac=1 / ref=9 / deblock=1:0:0 / analyse=0x3:0x133 / me=umh / subme=10 / psy=1 / psy_rd=1.00:0.00 / mixed_ref=1 / me_range=24 / chroma_me=1 / trellis=2 / 8x8dct=1 / cqm=0 / deadzone=21,11 / fast_pskip=0 / chroma_qp_offset=-2 / threads=6 / sliced_threads=0 / nr=0 / decimate=0 / interlaced=0 / bluray_compat=0 / constrained_intra=0 / bframes=6 / b_pyramid=2 / b_adapt=2 / b_bias=0 / direct=3 / weightb=1 / open_gop=0 / weightp=2 / keyint=240 / keyint_min=23 / scenecut=40 / intra_refresh=0 / rc=crf / mbtree=0 / crf=18.8 / qcomp=0.60 / qpmin=0 / qpmax=69 / qpstep=4 / ip_ratio=1.40 / pb_ratio=1.30 / aq=1:0.80
Language : English
Default : Yes
Forced : No

Audio #1
ID : 2
Format : AC-3
Format/Info : Audio Coding 3
Mode extension : CM (complete main)
Format settings, Endianness : Big
Codec ID : A_AC3
Duration : 1h 9mn
Bit rate mode : Constant
Bit rate : 192 Kbps
Channel(s) : 2 channels
Channel positions : Front: L R
Sampling rate : 48.0 KHz
Bit depth : 16 bits
Compression mode : Lossy
Stream size : 94.8 MiB (7%)
Title : MVO [Diatrema] 2.0 192 kbps [Hurtom-Mister rock]
Language : Ukrainian
Default : Yes
Forced : No

Audio #2
ID : 3
Format : AC-3
Format/Info : Audio Coding 3
Mode extension : CM (complete main)
Format settings, Endianness : Big
Codec ID : A_AC3
Duration : 1h 9mn
Bit rate mode : Constant
Bit rate : 640 Kbps
Channel(s) : 6 channels
Channel positions : Front: L C R, Side: L R, LFE
Sampling rate : 48.0 KHz
Bit depth : 16 bits
Compression mode : Lossy
Stream size : 316 MiB (23%)
Title : Original 5.1 640 kbps
Language : English
Default : No
Forced : No

Text #1
ID : 4
Format : UTF-8
Codec ID : S_TEXT/UTF8
Codec ID/Info : UTF-8 Plain Text
Title : Eng full
Language : English
Default : No
Forced : No

Text #2
ID : 5
Format : UTF-8
Codec ID : S_TEXT/UTF8
Codec ID/Info : UTF-8 Plain Text
Title : Eng full SDH
Language : English
Default : No
Forced : No

Menu
00:00:00.000 : en:Bath Time
00:03:13.985 : en:Rules! Rules! Rules!
00:06:15.124 : en:Scamp Meets Angel
00:09:19.058 : en:"A World Without Fences"
00:11:32.191 : en:Street Dog
00:13:59.797 : en:Buster
00:16:19.186 : en:"Junkyard Society Rag"
00:19:39.178 : en:Scamp Runs Away
00:24:14.703 : en:Reggie's Alley
00:25:54.511 : en:The Tramp
00:29:58.171 : en:Run!
00:33:03.356 : en:Searching For Scamp
00:35:51.607 : en:"I Didn't Know That I Could Feel This Way"
00:37:07.475 : en:Missing Scamp
00:40:23.212 : en:Independence Day Picnic
00:43:20.514 : en:Scamp's Choice
00:46:44.927 : en:Junkyard Dog
00:49:30.217 : en:Looking For Angel
00:51:25.624 : en:"Always There"
00:53:13.148 : en:The Pound
00:56:03.193 : en:Going Home
00:58:49.692 : en:Welcome To The Family
01:01:17.840 : en:End Credits
01:03:08.326 : en:Opening Titles


Джерела та подяки: ріп відео, оригінальні звук та субтитри - EucHD, ; українська доріжка та постер - Mister rock

Особиста оцінка: 8 - мені сподобалося


Авторський реліз (завантажувати можна без реєстрації)
 Трекер:    Зареєстрований   

Завантажити / скачати мультфільм українською



відео для новачків



 Зареєстрований:   2013-09-02 11:41
 Розмір:   1.34 GB 
 Оцінка мультфільму:   6.6/10 (Голосів: 28)
   
Ваш часовий пояс: GMT + 2 Години

Нова тема   Відповісти