Кров: Останній Вампір / Blood: the Last Vampire [Movie][2000][HWP] 384p

Нові коментарі

Нова тема   Відповісти
Автор Повідомлення
Arch Enemy 
VIP


З нами з: 30.08.12
Востаннє: 22.08.17
Повідомлень: 644

2013-08-07 21:06  
Кров: Останній Вампір / Blood: the Last Vampire

Кров: Останній Вампір / Blood: the Last Vampire [Movie][2000][HWP] 384p

Вікове обмеження: 16+

Жанр: містика, жахи, драма.
Прем'єра: 18.11.2000
Країна: Японія

6.89 (4670 голосів)

Аніместудія: Production I.G
Режисер: Кітакубо Хіроюкі
Автор оригіналу: Ошіі Мамору

Опис: Дія відбувається на американській військовій авіабазі Йокота в післявоєнній Японії, за кілька місяців до початку В'єтнамської війни. Головна героїня - дівчина на ім'я Сая, яка працює на секретне агентство уряду Сполучених Штатів, знищуючи демонів-вампірів за допомогою катани.
Агенту Девіду стає відомо про демонів, які осіли в районі авіабази, і він впроваджує Саю в школу для дітей працівників бази під виглядом нової учениці із завданням знайти і знищити демонів.

Тип: Фільм, 48 хв.

Відео:
якість:
контейнер: avi
кодек:
частота кадрів: 23.976 кадрів/сек.
розмір кадру: 704x384 пікс.
бітрейт: ~1800 кбіт/сек.

Аудіо:
мова: українська, двоголосе закадрове озвучування
кодек:
кількість каналів: 2.0
бітрейт: 192 кбіт/сек.
частота: 48000 Гц

Джерело озвучення:

озвучування: Pika та Spectator
переклад: mogusam
редакція субтитрів: Hope
корекція субтитрів: Arch_Enemy
робота зі звуком: Spectator
контроль якості: Arch_Enemy
збірка релізу: Arch_Enemy

Джерело релізу:

> Версія DVD5 ТУТ <

> Версія HWP 384р ТУТ <

> Версія 692р ТУТ <
Скріншоти
Info
General
Complete name : E:\Anime\[AniUA]_Blood_-_The_Last_Vampire_[XviD_704x384_AC3_BDRip]_[Pika_and_Spectator].avi
Format : AVI
Format/Info : Audio Video Interleave
File size : 696 MiB
Duration : 48mn 16s
Overall bit rate : 2 015 Kbps
Movie name : Krov.Poslednij.vampir.2000.DUAL....-HQCLUB
Director : Orbit
Writing application : VirtualDubModRus 1.5.10.2 (build 2542/release)
Writing library : VirtualDubMod build 2542/release
Copyright : hqclub.net
Comment : 29.12.2010

Video
ID : 0
Format : MPEG-4 Visual
Format profile : Advanced [email protected]
Format settings, BVOP : 1
Format settings, QPel : No
Format settings, GMC : No warppoints
Format settings, Matrix : Custom
Codec ID :
Codec ID/Hint :
Duration : 48mn 16s
Bit rate : 1 814 Kbps
Width : 704 pixels
Height : 384 pixels
Display aspect ratio : 1.85:1
Frame rate : 23.976 fps
Color space : YUV
Chroma subsampling : 4:2:0
Bit depth : 8 bits
Scan type : Progressive
Compression mode : Lossy
Bits/(Pixel*Frame) : 0.280
Stream size : 626 MiB (90%)
Writing library : 1.2.1 (UTC 2008-12-04)

Audio
ID : 1
Format : AC-3
Format/Info : Audio Coding 3
Mode extension : CM (complete main)
Format settings, Endianness : Big
Codec ID : 2000
Duration : 48mn 16s
Bit rate mode : Constant
Bit rate : 192 Kbps
Channel(s) : 2 channels
Channel positions : Front: L R
Sampling rate : 48.0 KHz
Bit depth : 16 bits
Compression mode : Lossy
Stream size : 66.3 MiB (10%)
Alignment : Split accross interleaves
Interleave, duration : 42 ms (1.00 video frame)
Interleave, preload duration : 500 ms


Авторський реліз (завантажувати можна без реєстрації)
 Трекер:    Зареєстрований   

Завантажити / скачати аніме українською



відео для новачків



 Зареєстрований:   2013-08-07 21:06
 Розмір:   696 MB 
 Оцінка аніме:   10/10 (Голосів: 7)
   
Arch Enemy 
VIP


З нами з: 30.08.12
Востаннє: 22.08.17
Повідомлень: 644

2013-08-07 22:08  
Версія для HardWare Плеєрів (ті що читають avi з флешок або дисків), телефонів (якщо здужають), та тих юзерів, кому достатньо такої якості зображення і в кого мала швидкість завантаження файлів.
shulz 
Частий відвідувач


З нами з: 28.09.12
Востаннє: 13.05.17
Повідомлень: 38

2013-08-07 23:31  
для 5дюймового комунікатора взагалі ляля.
ImfromUkraine 
VIP


З нами з: 18.02.12
Востаннє: 22.08.17
Повідомлень: 289

2013-08-08 03:05  
це типу від аніме "Кров +"?
Arch Enemy 
VIP


З нами з: 30.08.12
Востаннє: 22.08.17
Повідомлень: 644

2013-08-08 16:46  
ImfromUkraine написано:
це типу від аніме "Кров +"?

Ні, це перед ним)))
Передісторія серіалу - ще до того, як Сая була у В'єтнамі.

ImfromUkraine 
VIP


З нами з: 18.02.12
Востаннє: 22.08.17
Повідомлень: 289

2013-08-08 20:24  
аа ясно, ато бачу мальовка зовсім не та, а сюжет схожий)
EvGaS 
Відео Гуртом - підтримка та поширення
Відео Гуртом - підтримка та поширення


З нами з: 27.02.12
Востаннє: 22.08.17
Повідомлень: 3338

2015-07-01 07:41  
Якось воно невдало склалося - історія не надто цікава, а від лицьової анімації мене просто коробило - є навіть зелений колір, ботоксні губи, диспропорції...

Дивитись тільки фанатам серіалу (значно кращого),
https://toloka.to/t35789
саме по собі воно якось йде з нікуди і в нікуди.

shangran 
Свій


З нами з: 04.10.14
Востаннє: 25.11.16
Повідомлень: 99

2015-07-03 14:32  
Хоча це було у далекому минулому,але мені сподобалось.Реалізм тут здався непаганим.Але щодо великого об'єму губ героїні можна погодитись.
Ваш часовий пояс: GMT + 2 Години

Нова тема   Відповісти