Меч у камені / The Sword in the Stone (1963) 1080p Ukr/Eng | Sub Ukr/Eng

Нові коментарі

Нова тема   Відповісти
Автор Повідомлення
Anonymous 







2013-07-27 16:40  
Меч у камені / The Sword in the Stone (1963) 1080p Ukr/Eng | Sub Ukr/Eng



Альтернативний постер


Жанр: анімація, фентезі, комедія, пригодницький, сімейний
Країна: США



Кінокомпанія: Walt Disney Productions
Режисер: Вольфганг Райтерман / Wolfgang Reitherman
Ролі озвучили: Себастіан Кебот / Sebastian Cabot, Карл Свенсон / Karl Swenson, Рікі Соренсен / Rickie Sorensen, Джуніус Метьюз / Junius Matthews, Джіні Тайлер / Ginny Tyler, Марта Bентворт / Martha Wentworth, Норман Елден / Norman Alden, Алан Напєр / Alan Napier, Річард Рейтерман / Richard Reitherman, Роберт Рейтерман / Robert Reitherman

Сюжет:
Чудовий золотий меч укладений у величезний камінь. Той, хто зможе його витягнути, стане королем Англії. Про це мріє і маленький хлопчик, з яким відбувається низка фантасмагоричних пригод. Чудеса, чарівники, чаклуни, огнедишні дракони...


рейтинг MPAA: G - нема вікових обмежень
Вікова категорія: 0+

Тривалість: 01:19:43
Якість: 1080p
Відео:
кодек:
розмір кадру: 1888x1080
бітрейт: 9653 кб/с

Аудіо # 1:
мова: українська
переклад: багатоголосий закадровий
Ролі озвучили: Анатолій Пашнін, Ладєсов?, Володимир Терещук і один жіночий
кодек: 2.0
бітрейт: 192 кб/с

Аудіо # 2:
мова: англійська
переклад: оригінал
кодек: 5.1
бітрейт: 384 кб/с

Субтитри # 1:
мова: українська
тип: програмні (м'які)
формат: *.srt

Субтитри # 2:
мова: англійська
тип: програмні (м'які)
формат: *.srt

Збережено оригінальні розділи, як на Blu-ray.
Info та
- [info]: frame I:916 Avg QP:15.85 size:198198
- [info]: frame P:40245 Avg QP:18.20 size: 85919
- [info]: frame B:73368 Avg QP:19.38 size: 28933
===============================================================================
General
Unique ID : 229991845584721957830718115594097542219 (0xAD06D17805CBA99BA7A3F0ECE132444B)
Complete name : D:\!Relizy\The.Sword.in.the.Stone.1963..1080p.Ukr.Eng.[sub.Ukr.Eng].
Format :
Format version : Version 4 / Version 2
File size : 5.69 GiB
Duration : 1h 19mn
Overall bit rate : 10.2 Mbps
Movie name : Меч у камені / The Sword in the Stone / Меч в камне (1963)
Encoded date : UTC 2013-07-27 14:03:53
Writing application : mkvmerge v6.3.0 ('You can't stop me!') built on Jun 28 2013 20:09:41
Writing library : libebml v1.3.0 + libmatroska v1.4.0

Video
ID : 1
Format : AVC
Format/Info : Advanced Video Codec
Format profile : High@L4.1
Format settings, CABAC : Yes
Format settings, ReFrames : 4 frames
Codec ID : V_MPEG4/ISO/AVC
Duration : 1h 19mn
Bit rate : 9 653 Kbps
Width : 1 888 pixels
Height : 1 080 pixels
Display aspect ratio : 16:9
Frame rate mode : Constant
Frame rate : 23.976 fps
Color space : YUV
Chroma subsampling : 4:2:0
Bit depth : 8 bits
Scan type : Progressive
Bits/(Pixel*Frame) : 0.197
Stream size : 5.25 GiB (92%)
Title : Меч у камені / The Sword in the Stone / Меч в камне (1963) [Freeisland-taty75]
Writing library : core 135 r2345 f0c1c53
Encoding settings : cabac=1 / ref=4 / deblock=1:0:0 / analyse=0x3:0x133 / me=umh / subme=10 / psy=1 / psy_rd=1.00:0.00 / mixed_ref=1 / me_range=32 / chroma_me=1 / trellis=2 / 8x8dct=1 / cqm=0 / deadzone=21,11 / fast_pskip=0 / chroma_qp_offset=-2 / threads=6 / lookahead_threads=1 / sliced_threads=0 / nr=0 / decimate=1 / interlaced=0 / bluray_compat=0 / constrained_intra=0 / bframes=8 / b_pyramid=2 / b_adapt=2 / b_bias=0 / direct=3 / weightb=1 / open_gop=0 / weightp=2 / keyint=240 / keyint_min=24 / scenecut=40 / intra_refresh=0 / rc_lookahead=50 / rc=2pass / mbtree=0 / bitrate=9653 / ratetol=2.0 / qcomp=1.00 / qpmin=0 / qpmax=50 / qpstep=4 / cplxblur=20.0 / qblur=0.5 / vbv_maxrate=38000 / vbv_bufsize=30000 / nal_hrd=none / ip_ratio=1.40 / pb_ratio=1.30 / aq=1:1.00
Language : English
Default : Yes
Forced : No
Color primaries : BT.709
Transfer characteristics : BT.709
Matrix coefficients : BT.709

Audio #1
ID : 2
Format : AC-3
Format/Info : Audio Coding 3
Mode extension : CM (complete main)
Format settings, Endianness : Big
Codec ID : A_AC3
Duration : 1h 19mn
Bit rate mode : Constant
Bit rate : 192 Kbps
Channel(s) : 2 channels
Channel positions : Front: L R
Sampling rate : 48.0 KHz
Bit depth : 16 bits
Compression mode : Lossy
Delay relative to video : 2s 144ms
Stream size : 109 MiB (2%)
Title : MVO [K1] 2.0 192 Kbps [Hurtom-karvai0]
Language : Ukrainian
Default : Yes
Forced : No

Audio #2
ID : 3
Format : AC-3
Format/Info : Audio Coding 3
Mode extension : CM (complete main)
Format settings, Endianness : Big
Codec ID : A_AC3
Duration : 1h 19mn
Bit rate mode : Constant
Bit rate : 384 Kbps
Channel(s) : 6 channels
Channel positions : Front: L C R, Side: L R, LFE
Sampling rate : 48.0 KHz
Bit depth : 16 bits
Compression mode : Lossy
Stream size : 219 MiB (4%)
Title : Original
Language : English
Default : No
Forced : No

Text #1
ID : 4
Format : UTF-8
Codec ID : S_TEXT/UTF8
Codec ID/Info : UTF-8 Plain Text
Title : Ukr full
Language : Ukrainian
Default : No
Forced : No

Text #2
ID : 5
Format : UTF-8
Codec ID : S_TEXT/UTF8
Codec ID/Info : UTF-8 Plain Text
Title : Eng full
Language : English
Default : No
Forced : No

Menu
00:00:00.000 : en:00:00:00.000
00:01:39.891 : en:00:01:39.891
00:08:26.798 : en:00:08:26.798
00:12:46.474 : en:00:12:46.474
00:16:59.393 : en:00:16:59.393
00:22:07.785 : en:00:22:07.785
00:25:02.209 : en:00:25:02.209
00:30:25.532 : en:00:30:25.532
00:39:07.720 : en:00:39:07.720
00:43:00.703 : en:00:43:00.703
00:49:12.116 : en:00:49:12.116
00:54:51.121 : en:00:54:51.121
00:56:45.694 : en:00:56:45.694
00:59:46.333 : en:00:59:46.333
01:04:05.592 : en:01:04:05.592
01:10:17.588 : en:01:10:17.588
01:15:37.575 : en:01:15:37.575


Джерела та подяки: ріп відео, оригінальні звук та субтитри, - taty75 (Freeisland); українська доріжка - karvai0 - зведення, OlegCena, xslim - запис з ТБ; українські субтитри - karvai0 (з сервера доріжок); український постер - t0mas (всі - Гуртом).

Особиста оцінка: 8 - рекомендую всім дітям та їх батькам

ЗАЛИШАЙТЕСЬ ЯКОМОГА ДОВШЕ НА РОЗДАЧІ!

СКАЧАВ САМ - ДАЙ СКАЧАТИ ІНШИМ


Срібний реліз (на рейтинг впливає 50% завантаженого)
 Трекер:    Зареєстрований   

Завантажити / скачати мультфільм українською



відео для новачків



 Зареєстрований:   2013-07-27 17:16
 Розмір:   5.69 GB 
 Оцінка мультфільму:   5.7/10 (Голосів: 21)
   
Інші релізи
-VJ- 
VIP


З нами з: 01.11.09
Востаннє: 17.08.17
Повідомлень: 613

2013-08-03 16:17  
Цікаво, хто по зображенню таким ганебним фільтром пройшовся - самі діснеївці чи вже на телебаченні...
Та ще й картинку порізали згори і знизу.

Anonymous 







2013-08-03 16:49  
Ріп з 
-VJ- 
VIP


З нами з: 01.11.09
Востаннє: 17.08.17
Повідомлень: 613

2013-08-03 18:14  
igor911
Дякую.
Мндя...
Цікаво, таке "розтирання" діснеївці тепер називають "ремастерингом"? Happy

Hentaihunter 
VIP


З нами з: 16.08.08
Востаннє: 17.08.17
Повідомлень: 2362

2013-08-04 00:44  
А мені цікаво, навіщо оригінальний звук, єдину цінність Blu-ray (-HD Master Audio 5.1 / 48 kHz / 3316 кб/с / 24-bit ( Core: 5.1 / 48 kHz / 1509 кб/с / 24-bit)), спаскуджувати до АС3 384 кб/с?
-VJ-, на хайдіклабі люди теж не в захваті від блюрика:
Цитата:
Мало того, що обрізали, так і якість посередня проти ХДТВ. Якось усе пливе.

-VJ- 
VIP


З нами з: 01.11.09
Востаннє: 17.08.17
Повідомлень: 613

2013-08-04 07:41  
Hentaihunter написано:
спаскуджувати до АС3


Ну, тут я якраз підказати можу - багато телевізорів через ліцензійні закрути не програють .
Наприклад Філіпси - всі як один.

Hentaihunter 
VIP


З нами з: 16.08.08
Востаннє: 17.08.17
Повідомлень: 2362

2013-08-04 13:30  
-VJ-, знаю, тому й обрав для себе "Samsung". Але ж адекватні люди дивляться не через ТБ. Чи ви бачили, щоб на тому ж хайдіклабі хтось калічив звук, мотивуючись телевізором? Тим більше, що в оригіналі будуть дивитися одиниці. Краще б релізер узяв на Кінозалі 720p розміром на DVD5, замінив би російські озвучку та субтитри відповідними українськими, був би більший попит.
Техдані 720p
Качество: (720p)
Видео: MPEG-4 AVC, 5555 Кбит/с, 1280x732
Аудио: Русский (, 2 ch, 320 Кбит/с), (, 6 ch, 448 Кбит/с), английский (, 6 ch, 1509 Кбит/с)
Размер: 4.36 ГБ
Продолжительность: 01:19:43
Перевод: Дублированный, авторский
Субтитры: Русские, английские
[info]: frame I:1484 Avg QP:13.96 size:141501
[info]: frame P:43080 Avg QP:16.75 size: 46564
[info]: frame B:134832 Avg QP:17.33 size: 26571

Ваш часовий пояс: GMT + 2 Години

Нова тема   Відповісти