Східний Едем: Втрачений Рай / Eden of The East the Movie II: Paradise Lost / Higashi no Eden Gekijoban II: Paradise Lost (2010) ВRip 1080p

Нові коментарі

Нова тема   Відповісти
Автор Повідомлення
ihabi 
Поважний учасник


З нами з: 01.03.13
Востаннє: 07.08.17
Повідомлень: 247

2013-07-25 22:04  
Східний Едем: Втрачений Рай / Eden of The East the Movie II: Paradise Lost / Higashi no Eden Gekijoban II: Paradise Lost (фільм другий) (2010) ВRip 1080p

Східний Едем: Втрачений Рай / Eden of The East the Movie II: Paradise Lost / Higashi no Eden Gekijoban II: Paradise Lost (2010) ВRip 1080p


Жанр: детектив, пригоди, романтика
Країна: Японія



7.49 (1274 голосів)

Кінокомпанія: Production I.G
Режисер: Каміяма Кенджі
Ролі озвучують: Хаямі Саорі, Кумура Рьохей, Кавахара Мотоюкі, Тамагава Сакіко, Тая Хаято

Сюжет:
Сюжет продовжується з місця попереднього фільму. Такіказа та Сакі прибувають до Японії де на них вже чекає жінка прем'єр міністра Інуми Сейдзіро, та... Купа безробітних... Вони чатують його вже декілька днів в аеропорті. Але "Небесному Королю" не до них. У нього є свої думки щодо того, як перемогти у "грі" та набити пику містерові Спостерігачу (Аутсайдеру)...


Тривалість: 1 серія: 01:32:06
Якість:
Відео:
кодек: DivX 4.x
розмір кадру: 1920 х 1080
бітрейт: 2 767 кб/с

Аудіо:
мова: українська
переклад: багатоголосий закадровий
кодек: 2.0
бітрейт: 192 кб/с
Info

Video
ID : 1
Format : MPEG-4 Visual
Format profile : [email protected]
Format settings, BVOP : No
Format settings, QPel : No
Format settings, GMC : No warppoints
Format settings, Matrix : Default (H.263)
Codec ID : V_MS/VFW/FOURCC / DIVX
Codec ID/Info : Project Mayo
Codec ID/Hint : DivX 4
Duration : 1h 32mn
Bit rate : 2 767 Kbps
Width : 1 920 pixels
Height : 1 080 pixels
Display aspect ratio : 16:9
Frame rate mode : Constant
Frame rate : 23.976 fps
Color space : YUV
Chroma subsampling : 4:2:0
Bit depth : 8 bits
Scan type : Progressive
Compression mode : Lossy
Bits/(Pixel*Frame) : 0.056
Stream size : 1.78 GiB (92%)
Writing library : Lavc53.8.0
Default : Yes
Forced : No

Audio
ID : 2
Format : AC-3
Format/Info : Audio Coding 3
Mode extension : CM (complete main)
Format settings, Endianness : Big
Codec ID : A_AC3
Duration : 1h 32mn
Bit rate mode : Constant
Bit rate : 192 Kbps
Channel(s) : 2 channels
Channel positions : Front: L R
Sampling rate : 48.0 KHz
Bit depth : 16 bits
Compression mode : Lossy
Stream size : 126 MiB (6%)
Default : Yes
Forced : No

Text
ID : 3
Format : ASS
Codec ID : S_TEXT/ASS
Codec ID/Info : Advanced Sub Station Alpha
Compression mode : Lossless
Language : Ukrainian
Default : Yes
Forced : Yes
Субтитри:
мова: українська
тип: пререндерні (написи)
формат: *.ass

Скріншоти







Переклад та озвучення виконано:
Переклад: ihabi
Редагування: Kallaider
Текст читали:

Робота зі звуком: Kallaider
Постер: ihabi

Джерело: MelodicVoiceStudio


Особиста оцінка: 9 - давно не бачив настільки якісне кіно

Серія складається з: ТВ-версія Перший фільм


P.S. Додивіться до кінця, після субтитрів продовження. Переклад пісень машинний Wink (1)


Авторський реліз (завантажувати можна без реєстрації)
 Трекер:    Зареєстрований   

Завантажити / скачати аніме українською



відео для новачків



 Зареєстрований:   2013-07-25 22:04
 Розмір:   1.94 GB 
 Оцінка аніме:   10/10 (Голосів: 11)
   
ihabi 
Поважний учасник


З нами з: 01.03.13
Востаннє: 07.08.17
Повідомлень: 247

2013-07-25 22:36  
Авторський!
shulz 
Частий відвідувач


З нами з: 28.09.12
Востаннє: 13.05.17
Повідомлень: 38

2013-07-25 22:43  
Як перевірять тоді і дадуть)
Givi 
Модератор відео


З нами з: 25.02.08
Востаннє: 20.08.17
Повідомлень: 2880

2013-07-26 21:21  
ihabi
Реліз відредагував, але на майбутнє, не забувайте про пункт 2 чинних Правил
Цитата:
Якщо мова тільки українська, її не вказуємо.

ihabi 
Поважний учасник


З нами з: 01.03.13
Востаннє: 07.08.17
Повідомлень: 247

2013-07-27 01:12  
Givi
Зрозумів. Дякую!

EvGaS 
Відео Гуртом - підтримка та поширення
Відео Гуртом - підтримка та поширення


З нами з: 27.02.12
Востаннє: 20.08.17
Повідомлень: 3332

2015-07-21 10:21  
Це скоріше не другий фільм, а продовження першого 3-годинного, розпиленого навпіл. =)

Закрутили історію сильно, розкрутили теж цікаво, хоча в фіналі є неприємна несумісність:
1. ГГ не дотримав обіцянки дівчині, що повернеться - "І більше ми його ніколи не бачили". ГГ не брехав, судячи з виду й інтонацій. Якось дурнувато склалося.
2. Телефон лишився в дівчини, а наприкінці усі номера селесао засвітилися - тобто почалася нова гра, і 9 телефон у дівчини. А маючи телефон, вийти на головного (старця замінив ГГ) не така вже й проблема, тим паче колектив Східного Раю вже добре проінформований про гру й ляльковода.
Якось взаємовиключно. Або просто не зустрічали ГГ кілька місяців, і це "ніколи" тривало стільки ж... Або якась неточність в перекладі тієї фрази, може через гру слів... В мене скласти докупи не вийшло, хоча ця серія аніме послідовна, й з деякими фантастичними допусками - реалістична. Але тут якось не складається. Хоча два сильно помітних ляпи - цей і з янголом - доволі мало, якщо зважити на довжину всього цього шпигунського комбінаторства...

Silvana237 
Новенький


З нами з: 23.07.13
Востаннє: 08.08.17
Повідомлень: 1

2017-05-18 22:53  
EvGaS
Я думаю те, що в кінці всі номери засвітились - просто вставка, скоріш за все)
А от з останньої фрази ГГ довго сміялась, але то не дивно, зважаючи на те, що він вже не вперше отак утікав від неї, а шукала його саме вона)

Ваш часовий пояс: GMT + 2 Години

Нова тема   Відповісти