Ігор / Igor (2008) 720p Ukr/Eng | Sub Ukr/Eng

Нові коментарі

Нова тема   Відповісти
Автор Повідомлення
braveboy 
Відео Гуртом - команда HD
Відео Гуртом - команда HD


З нами з: 15.06.10
Востаннє: 13.08.17
Повідомлень: 949

2013-07-23 02:17  

Ігор / Igor (2008) 720p Ukr/Eng | Sub Ukr/Eng


Ігор / Igor (2008) 720p Ukr/Eng | Sub Ukr/Eng

«All men aren't created Evil.»

Жанр: анімація, комедія, сімейний, фентезі
Країна: США, Франція



Кінокомпанія: Exodus Film Group, Exodus Productions
Режисер: Ентоні Леондіс / Anthony Leondis
Актори: Джон К'юсак / John Cusack, Стів Бушемі / Steve Buscemi, Шон Гейс / Sean Hayes, Моллі Шеннон / Molly Shannon, Мейлін Класс / Myleene Klass, Робін Волш / Robin Walsh, Метт МакКенна / Matt McKenna, Джон Кліз / John Cleese, Джесс Гарнелл / Jess Harnell, Едді Іззард / Eddie Izzard, Крістіан Слейтер / Christian Slater

Сюжет:
У світі, населеному Божевільними Вченими і злими Винахідниками, один талановитий помічник злого вченого мріє сам стати вченим і виграти щорічний Злий Ярмарок Науки.



Тривалість: 01:26:33
Якість: 720p
Відео:
кодек:
розмір кадру: 1280 x 692
бітрейт: 5508 кб/с

Аудіо # 1:
мова: українська
переклад: багатоголосий закадровий
кодек: 2.0
бітрейт: 192 кб/с

Аудіо # 2:
мова: англійська
переклад: оригінал
кодек: 5.1
бітрейт: 1509 кб/с

Джерело озвучення:


Субтитри:
мова: українська
тип: програмні (м'які)
формат: *.srt

Субтитри:
мова: англійська
тип: програмні (м'які)
формат: *.srt
720p by braveboy
log

[info]: frame I:1334 Avg QP:12.97 size:144701
[info]: frame P:29184 Avg QP:14.73 size: 56491
[info]: frame B:93985 Avg QP:15.86 size: 18420
[info]: consecutive B-frames: 3.2% 3.0% 9.2% 27.3% 16.3% 34.2% 6.9%
[info]: mb I I16..4: 5.7% 65.8% 28.5%
[info]: mb P I16..4: 0.9% 12.6% 3.2% P16..4: 30.3% 23.0% 18.0% 1.2% 0.4% skip:10.4%
[info]: mb B I16..4: 0.1% 1.2% 0.5% B16..8: 26.9% 16.5% 5.7% direct: 6.7% skip:42.5% L0:45.8% L1:38.7% BI:15.5%
[info]: 8x8 transform intra:72.4% inter:39.0%
[info]: coded y,uvDC,uvAC intra: 90.7% 91.9% 81.9% inter: 28.1% 27.5% 18.1%
[info]: i16 v,h,dc,p: 23% 9% 7% 61%
[info]: i8 v,h,dc,ddl,ddr,vr,hd,vl,hu: 13% 12% 9% 9% 11% 11% 12% 11% 13%
[info]: i4 v,h,dc,ddl,ddr,vr,hd,vl,hu: 19% 9% 4% 9% 14% 12% 13% 10% 12%
[info]: i8c dc,h,v,p: 44% 23% 17% 17%
[info]: Weighted P-Frames: Y:7.5% UV:4.8%
[info]: ref P L0: 46.7% 6.7% 20.4% 7.3% 6.9% 4.6% 4.4% 2.4% 0.5% 0.1%
[info]: ref B L0: 63.2% 15.9% 8.3% 5.1% 4.4% 2.3% 0.8%
[info]: ref B L1: 91.5% 8.5%
[info]: kb/s:5504.29
Info
Video
Video
ID : 1
Format : AVC
Format/Info : Advanced Video Codec
Format profile : [email protected]
Format settings, CABAC : Yes
Format settings, ReFrames : 8 frames
Codec ID : V_MPEG4/ISO/AVC
Duration : 1h 26mn
Bit rate : 5 508 Kbps
Width : 1 280 pixels
Height : 692 pixels
Display aspect ratio : 1.85:1
Frame rate mode : Constant
Frame rate : 23.976 fps
Color space : YUV
Chroma subsampling : 4:2:0
Bit depth : 8 bits
Scan type : Progressive
Bits/(Pixel*Frame) : 0.259
Stream size : 3.24 GiB (74%)
Title : Igor (2008) 720p by braveboy
Writing library : core 129 r2245 bc13772
Encoding settings : cabac=1 / ref=8 / deblock=1:-3:-3 / analyse=0x3:0x133 / me=umh / subme=10 / psy=1 / psy_rd=0.80:0.00 / mixed_ref=1 / me_range=34 / chroma_me=1 / trellis=2 / 8x8dct=1 / cqm=0 / deadzone=21,11 / fast_pskip=0 / chroma_qp_offset=-2 / threads=6 / lookahead_threads=1 / sliced_threads=0 / nr=0 / decimate=0 / interlaced=0 / bluray_compat=0 / constrained_intra=0 / bframes=6 / b_pyramid=2 / b_adapt=2 / b_bias=0 / direct=1 / weightb=1 / open_gop=0 / weightp=2 / keyint=240 / keyint_min=24 / scenecut=40 / intra_refresh=0 / rc=2pass / mbtree=0 / bitrate=5508 / ratetol=1.0 / qcomp=0.60 / qpmin=10 / qpmax=51 / qpstep=4 / cplxblur=20.0 / qblur=0.5 / ip_ratio=1.40 / pb_ratio=1.30 / aq=1:1.00
Default : Yes
Forced : No

Audio #1
ID : 2
Format : AC-3
Format/Info : Audio Coding 3
Mode extension : CM (complete main)
Format settings, Endianness : Big
Codec ID : A_AC3
Duration : 1h 26mn
Bit rate mode : Constant
Bit rate : 192 Kbps
Channel(s) : 2 channels
Channel positions : Front: L R
Sampling rate : 48.0 KHz
Bit depth : 16 bits
Compression mode : Lossy
Stream size : 119 MiB (3%)
Title : 2.0 @ 192 kbps [TET]
Language : Ukrainian
Default : Yes
Forced : No

Audio #2
ID : 3
Format :
Format/Info : Digital Theater Systems
Mode : 16
Format settings, Endianness : Big
Codec ID : A_DTS
Duration : 1h 26mn
Bit rate mode : Constant
Bit rate : 1 509 Kbps
Channel(s) : 6 channels
Channel positions : Front: L C R, Side: L R, LFE
Sampling rate : 48.0 KHz
Bit depth : 24 bits
Compression mode : Lossy
Stream size : 934 MiB (21%)
Title : 5.1 @ 1509 kbps
Language : English
Default : No
Forced : No

Text #1
ID : 4
Format : UTF-8
Codec ID : S_TEXT/UTF8
Codec ID/Info : UTF-8 Plain Text
Title : Full
Language : Ukrainian
Default : No
Forced : No

Text #2
ID : 5
Format : UTF-8
Codec ID : S_TEXT/UTF8
Codec ID/Info : UTF-8 Plain Text
Title : Full
Language : English
Default : No
Forced : No

Menu
00:00:00.000 : en:00:00:00.000
00:05:12.312 : en:00:05:12.312
00:07:39.876 : en:00:07:39.876
00:11:03.496 : en:00:11:03.496
00:15:15.957 : en:00:15:15.957
00:18:59.889 : en:00:18:59.889
00:22:40.484 : en:00:22:40.484
00:24:35.724 : en:00:24:35.724
00:29:31.019 : en:00:29:31.019
00:33:27.255 : en:00:33:27.255
00:37:42.719 : en:00:37:42.719
00:40:59.374 : en:00:40:59.374
00:42:58.201 : en:00:42:58.201
00:46:03.260 : en:00:46:03.260
00:52:03.662 : en:00:52:03.662
00:55:44.132 : en:00:55:44.132
00:58:23.166 : en:00:58:23.166
01:00:58.780 : en:01:00:58.780
01:03:43.361 : en:01:03:43.361
01:06:17.682 : en:01:06:17.682
01:08:39.032 : en:01:08:39.032
01:12:56.038 : en:01:12:56.038
01:16:33.506 : en:01:16:33.506
01:19:08.911 : en:01:19:08.911
Скріншоти


 Трекер:    Зареєстрований   

Завантажити / скачати мультфільм українською



відео для новачків



 Зареєстрований:   2013-08-05 01:33
 Розмір:   4.36 GB 
 Оцінка мультфільму:   10/10 (Голосів: 5)
   
Інші релізи
   Ігор / Igor (2008) Ukr/Eng | Sub Ukr/Eng karvai0  4 / 0   1.45 GB   2013-07-23 02:04 
bot 
робот


З нами з: 30.09.07
Востаннє: 26.05.05
Повідомлень: 17362

2013-07-23 02:18  
Тему перенесено з Мультфільми в HD до форуму Анонси релізів від Відео Гуртом


braveboy

bot 
робот


З нами з: 30.09.07
Востаннє: 26.05.05
Повідомлень: 17362

2013-08-05 01:27  
Тему перенесено з Анонси релізів від Відео Гуртом до форуму Мультфільми в HD


braveboy

Ваш часовий пояс: GMT + 2 Години

Нова тема   Відповісти