Безчуттєвий (Без почуттів, Без відчуттів) / Senseless (1998) 1080р 4xUkr/Eng | Sub Eng

Нові коментарі

Нова тема   Відповісти
Автор Повідомлення
Anonymous 







2013-07-13 14:40  
Безчуттєвий (Без почуттів, Без відчуттів) / Senseless (1998) 1080р 4xUkr/Eng | Sub Eng



Жанр: комедія, мелодрама
Країна: США



Кінокомпанія: Dimension Films, Mandeville Films, Gold/Miller Productions
Режисер: Пенелопа Сфіріс / Penelope Spheeris
Актори: Марлон Вайанс / Marlon Wayans, Меттью Ліллард / Matthew Lillard, Ріп Торн / Rip Torn, Бред Дуріф / Brad Dourif, Девід Спейд / David Spade та інші

Сюжет:
Бідний студент Дерріл Візерспун працює на чотирьох роботах, але грошей на оплату рахунків великої родини все одно не вистачає. Єдина надія - вибороти перемогу у конкурсі за посаду молодшого аналітика у відомій брокерській компанії. І якраз доречним тут стає випробування нових ліків, що в декілька разів поліпшують людські відчуття. Молода людина стає мало не супергероєм, але несподівано даються взнаки дивні побічні ефекти ...


рейтинг MPAA: R - особам до 17 років обов'язкова присутність батьків або дорослого опікуна
Вікова категорія: 16+

Тривалість: 01:33:21
Якість: 1080p
Відео:
кодек:
розмір кадру: 1920x1080
бітрейт: 14,1 Мб/с

Аудіо # 1:
мова: українська
переклад: професійний дубльований
кодек: 2.0 (стерео)
бітрейт: 192 кб/с
назву озвучено: Безчуттєвий

Аудіо # 2:
мова: українська
переклад: багатоголосий закадровий
кодек: 2.0
бітрейт: 192 кб/с
назву озвучено: Без почуттів

Аудіо # 3:
мова: українська
переклад: двоголосий закадровий
чоловічі ролі озвучив: Юрій Ребрик
кодек: 2.0
бітрейт: 192 кб/с
назву озвучено: Без відчуттів

Аудіо # 4:
мова: українська
переклад: двоголосий закадровий
ролі озвучили: Євген Пашин і Наталя Ярошенко
кодек: 2.0
бітрейт: 192 кб/с
примітка: присутня півхвилинна вставка з доріжки Нового

Аудіо # 5:
мова: англійська
переклад: оригінал
кодек: 5.1
бітрейт: 384 кб/с

Субтитри:
мова: англійська
тип: програмні (м'які)
формат: *.srt

Збережено оригінальні розділи, як на Blu-ray.
Info
Код:

Complete name               : Senseless (1998) [4xUkr,Eng sub.Eng] 1080p [Hurtom].
Format                      :
Format version              : Version 4
File size                   : 9.93 GiB
Duration                    : 1 h 33 min
Overall bit rate            : 15.2 Mb/s
Movie name                  : Безчуттєвий / Без почуттів / Без відчуттів / Senseless (1998) [4xUkr,Eng sub.Eng] 1080p [Hurtom]
Encoded date                : UTC 2019-11-01 14:25:50
Writing application         : v38.0.0 ('The Silent Type') 64-bit
Writing library             : libebml v1.3.9 + v1.5.2
Cover                       : Yes
Attachments                 : cover.jpg

Video
ID                          : 1
Format                      : AVC
Format/Info                 : Advanced Video Codec
Format profile              : [email protected]
Format settings             : CABAC / 4 Ref Frames
Format settings, CABAC      : Yes
Format settings, Reference  : 4 frames
Codec ID                    : V_MPEG4/ISO/AVC
Duration                    : 1 h 33 min
Bit rate                    : 14.1 Mb/s
Width                       : 1 920 pixels
Height                      : 1 080 pixels
Display aspect ratio        : 16:9
Frame rate mode             : Constant
Frame rate                  : 23.976 (24000/1001) FPS
Color space                 : YUV
Chroma subsampling          : 4:2:0
Bit depth                   : 8 bits
Scan type                   : Progressive
Bits/(Pixel*Frame)          : 0.283
Stream size                 : 9.18 GiB (92%)
Title                       : Безчуттєвий / Без почуттів / Без відчуттів / Senseless (1998) [0ptimus]
Writing library             : core 132 r2310 76a5c3a
Encoding settings           : cabac=1 / ref=4 / deblock=1:-3:-3 / analyse=0x3:0x113 / me=umh / subme=11 / psy=1 / psy_rd=1.00:0.20 / mixed_ref=1 / me_range=32 / chroma_me=1 / trellis=2 / 8x8dct=1 / cqm=0 / deadzone=21,11 / fast_pskip=0 / chroma_qp_offset=-3 / threads=4 / lookahead_threads=1 / sliced_threads=0 / nr=0 / decimate=0 / interlaced=0 / bluray_compat=0 / constrained_intra=0 / bframes=9 / b_pyramid=2 / b_adapt=2 / b_bias=0 / direct=3 / weightb=1 / open_gop=0 / weightp=2 / keyint=240 / keyint_min=23 / scenecut=40 / intra_refresh=0 / rc_lookahead=40 / rc=2pass / mbtree=0 / bitrate=14076 / ratetol=1.0 / qcomp=0.60 / qpmin=0 / qpmax=69 / qpstep=4 / cplxblur=20.0 / qblur=0.5 / vbv_maxrate=50000 / vbv_bufsize=62500 / nal_hrd=none / ip_ratio=1.40 / pb_ratio=1.30 / aq=1:1.00
Language                    : English
Default                     : Yes
Forced                      : Yes

Audio #1
ID                          : 2
Format                      : AC-3
Format/Info                 : Audio Coding 3
Commercial name             : Dolby Digital
Codec ID                    : A_AC3
Duration                    : 1 h 33 min
Bit rate mode               : Constant
Bit rate                    : 192 kb/s
Channel(s)                  : 2 channels
Channel layout              : L R
Sampling rate               : 48.0 kHz
Frame rate                  : 31.250 FPS (1536 SPF)
Compression mode            : Lossy
Stream size                 : 128 MiB (1%)
Title                       : Dub [NLO.TV], 2.0 [stereo] 192 Kbps
Language                    : Ukrainian
Service kind                : Complete Main
Default                     : Yes
Forced                      : No

Audio #2
ID                          : 3
Format                      : AC-3
Format/Info                 : Audio Coding 3
Commercial name             : Dolby Digital
Codec ID                    : A_AC3
Duration                    : 1 h 33 min
Bit rate mode               : Constant
Bit rate                    : 192 kb/s
Channel(s)                  : 2 channels
Channel layout              : L R
Sampling rate               : 48.0 kHz
Frame rate                  : 31.250 FPS (1536 SPF)
Compression mode            : Lossy
Stream size                 : 128 MiB (1%)
Title                       : MVO [K1] 2.0 192 kbps [Hurtom-aalleexx85]
Language                    : Ukrainian
Service kind                : Complete Main
Default                     : No
Forced                      : No

Audio #3
ID                          : 4
Format                      : AC-3
Format/Info                 : Audio Coding 3
Commercial name             : Dolby Digital
Codec ID                    : A_AC3
Duration                    : 1 h 33 min
Bit rate mode               : Constant
Bit rate                    : 192 kb/s
Channel(s)                  : 2 channels
Channel layout              : L R
Sampling rate               : 48.0 kHz
Frame rate                  : 31.250 FPS (1536 SPF)
Compression mode            : Lossy
Stream size                 : 128 MiB (1%)
Title                       : DVO [Novyj] 2.0 192 kbps [Hurtom-aalleexx85]
Language                    : Ukrainian
Service kind                : Complete Main
Default                     : No
Forced                      : No

Audio #4
ID                          : 5
Format                      : AC-3
Format/Info                 : Audio Coding 3
Commercial name             : Dolby Digital
Codec ID                    : A_AC3
Duration                    : 1 h 33 min
Bit rate mode               : Constant
Bit rate                    : 192 kb/s
Channel(s)                  : 2 channels
Channel layout              : L R
Sampling rate               : 48.0 kHz
Frame rate                  : 31.250 FPS (1536 SPF)
Compression mode            : Lossy
Stream size                 : 128 MiB (1%)
Title                       : DVO [TET] 2.0 192 kbps [Hurtom-aalleexx85]
Language                    : Ukrainian
Service kind                : Complete Main
Default                     : No
Forced                      : No

Audio #5
ID                          : 6
Format                      : AC-3
Format/Info                 : Audio Coding 3
Commercial name             : Dolby Digital
Codec ID                    : A_AC3
Duration                    : 1 h 33 min
Bit rate mode               : Constant
Bit rate                    : 384 kb/s
Channel(s)                  : 6 channels
Channel layout              : L R C LFE Ls Rs
Sampling rate               : 48.0 kHz
Frame rate                  : 31.250 FPS (1536 SPF)
Compression mode            : Lossy
Stream size                 : 256 MiB (3%)
Title                       : Original 5.1 384 kbps
Language                    : English
Service kind                : Complete Main
Default                     : No
Forced                      : No

Text
ID                          : 7
Format                      : UTF-8
Codec ID                    : S_TEXT/UTF8
Codec ID/Info               : UTF-8 Plain Text
Duration                    : 1 h 32 min
Bit rate                    : 82 b/s
Count of elements           : 1383
Stream size                 : 55.9 KiB (0%)
Language                    : English
Default                     : No
Forced                      : No

Menu
00:00:00.000                : :Chapter 01
00:07:17.103                : :Chapter 02
00:15:28.677                : :Chapter 03
00:23:51.555                : :Chapter 04
00:31:14.205                : :Chapter 05
00:39:52.640                : :Chapter 06
00:48:58.060                : :Chapter 07
00:56:55.078                : :Chapter 08
01:03:44.570                : :Chapter 09
01:12:19.667                : :Chapter 10
01:19:29.222                : :Chapter 11
01:27:13.895                : :Chapter 12
01:33:21.637                : :Chapter 13




Джерела та подяки: &
ріп відео - 0ptimus (рутор); українські доріжки - Sando7 (НЛО TV), aalleexx85 - синхронізація (дор.2-4), xslim, РОМЕО - запис з ТБ, MrRyanCooper - вчасно повідомив про трансляцію на К1; українізований постер - somnambula; інформація про озвучення - Віктор (всі - Гуртом).

05.11.2015 реліз оновлено - додано озвучення від К1 та ТЕТ
01.11.2019 реліз оновлено - додано український дубляж від НЛО TV


Срібний реліз (на рейтинг впливає 50% завантаженого)
 Трекер:    Зареєстрований   

Завантажити / скачати фільм українською



відео для новачків



 Зареєстрований:   2019-11-01 16:48
 Розмір:   9.93 GB 
 Оцінка фільму:   7.1/10 (Голосів: 32)
 ЗАЛИШАЙТЕСЬ ЯКОМОГА ДОВШЕ НА РОЗДАЧІ! ЗАВАНТАЖИВ САМ - ДАЙ ЗАВАНТАЖИТИ ІНШИМ!
   
Anonymous 







2015-11-05 16:57  
Реліз оновлено - додано доріжки від К1 та ТЕТ.
Anonymous 







2019-11-01 16:49  
Реліз оновлено - додано український дубляж від НЛО TV
antik_2008 
Релізер і модератор відео


З нами з: 20.10.08
Востаннє: 19.01.20
Повідомлень: 2945

2019-11-01 18:12  
Бомбове кіно Happy Дякую!
Bodik.New 
Новенький


З нами з: 09.08.09
Востаннє: 18.01.20
Повідомлень: 9

2019-11-02 15:19  
1998 рік був багатий на шикарнючі комедії - Big Lebowski, Truman Show, You Have Got Mail, Lock, Stock, & Two Smoking Barels, Rush Hour, Fear and Loathing in Las Vegas, Night At The Roxbury, Taxi, Small Soldiers, Mask of Zorro, Six Days & Seven Nights, Lethal Weapon 4 (і це тільки ті, які в моєму always watch list) - і Senseless займає не останнє місце в цьому списку. В свій час переглядав в кцп дубляжі, дякую за український!
Ваш часовий пояс: GMT + 2 Години

Нова тема   Відповісти