ДахаБраха | Дискографія (4 альбоми) (2006—2010) [] | EthnoChaos / World-music

Нові коментарі

Нова тема   Відповісти
Сторінка:   попередня  1, 2
Автор Повідомлення
ssTAss 
Модератор музики


З нами з: 05.07.08
Востаннє: 19.03.19
Повідомлень: 14816

2011-02-08 17:05  
"замутив" загальну обкладинку
сподобається - можете поставити))
тиць
jinotot 
Почесний оцифрувальник літератури


З нами з: 28.01.09
Востаннє: 19.10.18
Повідомлень: 3234

2011-02-09 17:21  
ssTAss'е, дякую, вийшло дуже файно! Додав на правах альтернативної Happy
Подумаю, може вигадаю де б її розмістити, щоб була більше на видноті. А може, Ви придумаєте, то поставите, куди краще.
Хочеться просто й гіфку залишити, бо півгодини я над нею морочився Rolleyes (2)

Ех, а що ж мені робити з тими .cue? Я, звісно, розумію, що своєю тугодоходящістю я тут забембав уже всіх, та всеж: чи не порадите якоїсь толкової інструкції з приводу того, що, як саме, і у яких випадках потрібно з тими .cue робити? Бо інформації море, знайти серед того моря щось влучне й потрібна просто фізично бракує сил, терпіння і часу. Бо я, наче й зрозумів, що саме потрібно робити, але не зовсім певен у тому, що зрозумів правильно.
Крім того, що найбільше мене збиває з пантелику, так це те, що всі мої лінуксові плеєри читають флаки без усіляких куе і плей-листів, тож мені складно уявити, що у вінді це не так. До речі, у вінді AIMP, здається, також відтворював все без проблем після простого перетягування файлів до списку програвання... Чи то мені наснилося?
Що ж спробую ще зробити так, як Ви порадили, і як я то зрозумів, якщо не вийде, то знову канючитиму і проситиму лінк на інструкцію.
ssTAss 
Модератор музики


З нами з: 05.07.08
Востаннє: 19.03.19
Повідомлень: 14816

2011-02-09 18:17  
jinotot написано:
Ех, а що ж мені робити з тими .cue?

та все норм), не переживайте... дуже кльові і якісні ріпи
а цей куе не чіпайте - він потрібен для запису
просто для прослуховування ним не скористаєшся (без редагування), а треба відкривати файл m3u
jinotot написано:
всі мої лінуксові плеєри читають флаки без усіляких куе і плей-листів

воно то так, але фішка лослесу не в тому)
без куе відтворити диск таким, яким він був не можливо
тому суть не в програванні чи ні, а в точній копії
jinotot 
Почесний оцифрувальник літератури


З нами з: 28.01.09
Востаннє: 19.10.18
Повідомлень: 3234

2011-02-11 23:37  
Так, шось наче вийшло.
Ну, от для прикладу останній альбом...
ДахаБраха - Light (2010).cue
REM GENRE EthnoChaos
REM DATE 2010
REM DISCID 700DA009
REM COMMENT "ExactAudioCopy v0.99pb5"
PERFORMER "ДахаБраха"
TITLE "Light"
FILE "01 - Сухий дуб.wav" WAVE
TRACK 01 AUDIO
TITLE "Сухий дуб"
PERFORMER "ДахаБраха"
INDEX 01 00:00:00
TRACK 02 AUDIO
TITLE "Specially for you"
PERFORMER "ДахаБраха"
INDEX 00 06:27:18
FILE "02 - Specially for you.wav" WAVE
INDEX 01 00:00:00
TRACK 03 AUDIO
TITLE "Карпатський реп"
PERFORMER "ДахаБраха"
INDEX 00 06:03:37
FILE "03 - Карпатський реп.wav" WAVE
INDEX 01 00:00:00
TRACK 04 AUDIO
TITLE "Жаба"
PERFORMER "ДахаБраха"
INDEX 00 05:55:09
FILE "04 - Жаба.wav" WAVE
INDEX 01 00:00:00
TRACK 05 AUDIO
TITLE "Тьолки"
PERFORMER "ДахаБраха"
INDEX 00 08:04:43
FILE "05 - Тьолки.wav" WAVE
INDEX 01 00:00:00
TRACK 06 AUDIO
TITLE "Колискова"
PERFORMER "ДахаБраха"
INDEX 00 03:44:10
FILE "06 - Колискова.wav" WAVE
INDEX 01 00:00:00
TRACK 07 AUDIO
TITLE "Baby"
PERFORMER "ДахаБраха"
INDEX 00 05:44:31
FILE "07 - Baby.wav" WAVE
INDEX 01 00:00:00
TRACK 08 AUDIO
TITLE "Please don't cry"
PERFORMER "ДахаБраха"
INDEX 00 07:21:48
FILE "08 - Please don't cry.wav" WAVE
INDEX 01 00:00:00
TRACK 09 AUDIO
TITLE "Бувайте здорові"
PERFORMER "ДахаБраха"
INDEX 00 06:13:50
FILE "09 - Бувайте здорові.wav" WAVE
INDEX 01 00:00:00
ДахаБраха - Light (2010)..cue
REM GENRE EthnoChaos
REM DATE 2010
REM DISCID 700DA009
REM COMMENT "ExactAudioCopy v0.99pb5"
PERFORMER "ДахаБраха"
TITLE "Light"
FILE "01 - Сухий дуб." WAVE
TRACK 01 AUDIO
TITLE "Сухий дуб"
PERFORMER "ДахаБраха"
INDEX 01 00:00:00
FILE "02 - Specially for you." WAVE
TRACK 02 AUDIO
TITLE "Specially for you"
PERFORMER "ДахаБраха"
INDEX 00 00:00:00
INDEX 01 00:02:00
FILE "03 - Карпатський реп." WAVE
TRACK 03 AUDIO
TITLE "Карпатський реп"
PERFORMER "ДахаБраха"
INDEX 00 00:00:00
INDEX 01 00:02:00
FILE "04 - Жаба." WAVE
TRACK 04 AUDIO
TITLE "Жаба"
PERFORMER "ДахаБраха"
INDEX 00 00:00:00
INDEX 01 00:02:00
FILE "05 - Тьолки." WAVE
TRACK 05 AUDIO
TITLE "Тьолки"
PERFORMER "ДахаБраха"
INDEX 00 00:00:00
INDEX 01 00:02:00
FILE "06 - Колискова." WAVE
TRACK 06 AUDIO
TITLE "Колискова"
PERFORMER "ДахаБраха"
INDEX 00 00:00:00
INDEX 01 00:02:00
FILE "07 - Baby." WAVE
TRACK 07 AUDIO
TITLE "Baby"
PERFORMER "ДахаБраха"
INDEX 00 00:00:00
INDEX 01 00:02:00
FILE "08 - Please don't cry." WAVE
TRACK 08 AUDIO
TITLE "Please don't cry"
PERFORMER "ДахаБраха"
INDEX 00 00:00:00
INDEX 01 00:02:00
FILE "09 - Бувайте здорові." WAVE
TRACK 09 AUDIO
TITLE "Бувайте здорові"
PERFORMER "ДахаБраха"
INDEX 00 00:00:00
INDEX 01 00:02:00
ssTAss’е, прошу подивитися й сказати, чи правильно я зробив?

Хотів сьогодні додати до роздачі ці куе з видкоригованими проміжками (шо воно значить, до речі?), але оскільки сервер глючить, то мабуть, вже завтра. Заодно буду впевнений, що все правильно і вже нічого змінювати чи додавати не доведеться.

Додано через 1 хвилину 18 секунд:

А! шо ше хотів спитати — при оформленні роздачі в описі під спойлером який краще подавати куе? Чи краще обидва?
ssTAss 
Модератор музики


З нами з: 05.07.08
Востаннє: 19.03.19
Повідомлень: 14816

2011-02-12 00:11  
jinotot написано:
ДахаБраха - Light (2010)..cue

пробували запускати ним Ваші файли? все норм?
а потрібні обидва
один для запису, інший для прослуховування
jinotot написано:
при оформленні роздачі в описі під спойлером який краще подавати куе?

це не принципово
за вмістом куе можна судити чи заповнені назви треків та теги в альбомі
а проміжки, то проміжки між треками

Додано через 9 хвилин 47 секунд:

jinotot написано:
Хотів сьогодні додати до роздачі ці куе з видкоригованими проміжками

думаю, це лишнє.. кому треба - звідси копірне
але як хочете
jinotot 
Почесний оцифрувальник літератури


З нами з: 28.01.09
Востаннє: 19.10.18
Повідомлень: 3234

2011-02-12 00:17  
ssTAss написано:
пробували запускати ним Ваші файли? все норм?
Ееее... Ви казали про фубар... У мене його нема. AIMP підійде? Яким чином треба пробувати цей ..cue запускати? Подвійний клік? Перетягування в плеєр? Ше якось? Завтра залогінюсь у вінду — спробую, шо з того вийде.
ssTAss написано:
а потрібні обидва
один для запису, інший для прослуховування
Та це я вже знаю, що обидва... Happy
ssTAss написано:
а проміжки, то проміжки між треками
В принципі зрозуміло, що то проміжки між треками, незрозуміло інше — чому їх потрібно коригувати і чому ті, що підходять для запису копії диска, не підходять для його програвання Wide grin
jinotot 
Почесний оцифрувальник літератури


З нами з: 28.01.09
Востаннє: 19.10.18
Повідомлень: 3234

2011-02-21 21:36  
ssTAss написано:
пробували запускати ним Ваші файли? все норм?
Відчуваю себе найтупішим створінням на світі, але... воно не працює Sad (1) За тим відредагованим куе програє лише перший трек. І все. І так само з різними іншими дисками. Ніяк не можу допетрати, що я роблю не так... І навіть гугл не допомагає...
ssTAss'е, розумію, що Вам моє скигління вже неабияк набридло, та все ж -- може десь є якась інструкція і з цього приводу?
Swirl 
Оцифрування книг Гуртом
Оцифрування книг Гуртом


З нами з: 12.10.09
Востаннє: 24.02.15
Повідомлень: 495

2011-02-21 21:53  
спробуйте "наочно" порішати)) через TeamViewer)
ssTAss 
Модератор музики


З нами з: 05.07.08
Востаннє: 19.03.19
Повідомлень: 14816

2011-02-21 23:40  
ось вручну відкорегував
ДахаБраха - Light (2010)..cue

REM GENRE EthnoChaos
REM DATE 2010
REM DISCID 700DA009
REM COMMENT "ExactAudioCopy v0.99pb5"
PERFORMER "ДахаБраха"
TITLE "Light"
FILE "01 - Сухий дуб." WAVE
TRACK 01 AUDIO
TITLE "Сухий дуб"
PERFORMER "ДахаБраха"
INDEX 01 00:00:00
FILE "02 - Specially for you." WAVE
TRACK 02 AUDIO
TITLE "Specially for you"
PERFORMER "ДахаБраха"
INDEX 01 00:00:00
FILE "03 - Карпатський реп." WAVE
TRACK 03 AUDIO
TITLE "Карпатський реп"
PERFORMER "ДахаБраха"
INDEX 01 00:00:00
FILE "04 - Жаба." WAVE
TITLE "Жаба"
PERFORMER "ДахаБраха"
INDEX 01 00:00:00
FILE "05 - Тьолки." WAVE
TRACK 05 AUDIO
TITLE "Тьолки"
PERFORMER "ДахаБраха"
INDEX 01 00:00:00
FILE "06 - Колискова." WAVE
TRACK 06 AUDIO
TITLE "Колискова"
PERFORMER "ДахаБраха"
INDEX 01 00:00:00
FILE "07 - Baby." WAVE
TRACK 07 AUDIO
TITLE "Baby"
PERFORMER "ДахаБраха"
INDEX 01 00:00:00
FILE "08 - Please don't cry." WAVE
TRACK 08 AUDIO
TITLE "Please don't cry"
PERFORMER "ДахаБраха"
INDEX 01 00:00:00
FILE "09 - Бувайте здорові." WAVE
TRACK 09 AUDIO
TITLE "Бувайте здорові"
PERFORMER "ДахаБраха"
INDEX 01 00:00:00
цей куе запускає Ваш альбом
та й не партесь так, є файл плей-лісту (.m3u), через який нормально слухається в фубарі
а чому у Вас не виходить? та то певно я так пояснюю)))
спробуйте створити інший куе (з залишковими проміжками чи поточними.. вже сам не пам'ятаю, давно ріпи не робив)) )
а взагалі найкраще
ssTAss написано:
знімати образом.. геморою менше))

що і Вам раджу
garmr 
Новенький


З нами з: 30.06.09
Востаннє: 14.02.14
Повідомлень: 17

2011-03-18 18:32  
Track 9

Filename C:\Program Files\Exact Audio Copy\\09 - Бувайте здорові.wav

Pre-gap length 0:00:02.00

Peak level 99.0 %
Track quality 99.4 %
Test CRC 35D65AE8
Copy CRC 62A5A9BB
Sad (1)
jinotot 
Почесний оцифрувальник літератури


З нами з: 28.01.09
Востаннє: 19.10.18
Повідомлень: 3234

2011-03-18 19:37  
garmr, та я бачив... Може, спробувати ріпнути ще раз, чи зробити ріп образом?
Skifstriy 
Частий відвідувач


З нами з: 13.12.09
Востаннє: 18.03.19
Повідомлень: 48

2011-03-29 23:30  
релізеру, і "Даха Браха" 5 з плюсом!!!
найбомбезнійший фольк по-моєму в Україні
theAleXX 
VIP


З нами з: 14.01.10
Востаннє: 02.03.19
Повідомлень: 495

2012-01-26 18:26  
Ніхто не буде на конці в Рівному?
nazarako 
Новенький


З нами з: 16.09.09
Востаннє: 16.03.19
Повідомлень: 8

2012-02-08 13:54  
Підкиньте швидкості....
alexlekh 
Новенький


З нами з: 25.03.12
Востаннє: 01.05.17
Повідомлень: 5

2012-03-25 22:43  
Люди-ну майте ж совість!!!Тільки прийшов вінт півторачка по гарантії і знову місця нема Wide grin Wide grin Wide grin
Леді22 
Забанено
Забанено


З нами з: 05.04.14
Востаннє: 15.03.15
Повідомлень: 229

2014-11-03 13:31  
Обожнюю ДахуБраху і Dakh Daughters!!! КРУТО!

poolvetrum 
VIP


З нами з: 01.06.14
Востаннє: 19.03.19
Повідомлень: 276

2015-10-29 21:17  
Прохання до релізера оновити дискографію.
flymonkeyhall 
Новенький


З нами з: 31.07.15
Востаннє: 18.01.18
Повідомлень: 2

2015-11-14 10:17  
Цитата:
Прохання до релізера оновити дискографію


Еге ж.
jinotot 
Почесний оцифрувальник літератури


З нами з: 28.01.09
Востаннє: 19.10.18
Повідомлень: 3234

2015-11-15 16:48  
poolvetrum написано:
Прохання до релізера оновити дискографію.
Про що йдеться?
poolvetrum 
VIP


З нами з: 01.06.14
Востаннє: 19.03.19
Повідомлень: 276

2015-11-15 16:51  
jinotot написано:
Про що йдеться?

Про неповноцінність дискографії, адже в ній немає цього альбому.
jinotot 
Почесний оцифрувальник літератури


З нами з: 28.01.09
Востаннє: 19.10.18
Повідомлень: 3234

2015-11-15 16:53  
poolvetrum, це спільний проект. В часи моєї та Гуртомівської молодості спільні проекти викладались окремими релізами і не входили до дискографій...
Ех, немає вже злих модерів... Не той тепер інтернет, Гуртом-трекер не той...))) Wide grin
poolvetrum 
VIP


З нами з: 01.06.14
Востаннє: 19.03.19
Повідомлень: 276

2015-11-15 18:30  
jinotot написано:
це спільний проект

Якби це був сайд проект, то так. Але це спільний альбом, а не сайд проект. Такі речі логічно поміщати в дискографію. Тим більш, що на офіційному сайті гурту він присутній в рубриці "Альбоми".
ssTAss 
Модератор музики


З нами з: 05.07.08
Востаннє: 19.03.19
Повідомлень: 14816

2015-11-15 21:07  
jinotot написано:
Ех, немає вже злих модерів...

є Tongue out (1)
і тут погоджуюсь з poolvetrum
poolvetrum написано:
Але це спільний альбом, а не сайд проект. Такі речі логічно поміщати в дискографію.
jinotot 
Почесний оцифрувальник літератури


З нами з: 28.01.09
Востаннє: 19.10.18
Повідомлень: 3234

2015-11-25 23:00  
Ну, якщо комусь дуже треба, то робіть. Я цим не займатимусь з трьох причин:
1) у мене немає цього альбому
2) він мені не подобається
3) не хочу :ь
flymonkeyhall 
Новенький


З нами з: 31.07.15
Востаннє: 18.01.18
Повідомлень: 2

2015-11-26 17:33  
Ну то й хай буде так Happy
Ганка 
Частий відвідувач


З нами з: 25.02.10
Востаннє: 18.03.19
Повідомлень: 28

2019-03-13 18:18  
Дякую за ! Супер-музика і супер-роздача.
Ваш часовий пояс: GMT + 2 Години

Нова тема   Відповісти Сторінка:   попередня  1, 2