Про те, як дізнатись інформацію про відео файл.

Нові коментарі

Нова тема   Відповісти
Сторінка:   попередня  1, 2
Автор Повідомлення
Flashbag 
Свій


З нами з: 23.07.10
Востаннє: 23.09.21
Повідомлень: 58

2011-02-18 21:25  
В лінуксі - [url=Info]http://Info.sourceforge.net/uk/[/url]
maksym1990 
Відео Гуртом - фільмокрай
Відео Гуртом - фільмокрай


З нами з: 04.04.08
Востаннє: 23.09.21
Повідомлень: 247

2011-08-27 21:49  
Допоможіть будь ласка. Коли дивлюся інформацію про фільм в Media Player Classic то не пише бітрейт відео, перестановлював програму, ставив різні версії і нічого не змінилося.

Video: 720x304 23.98fps [Stream 00]
Audio: Dolby 48000Hz 6ch 448Kbps [Stream 01]

А колись було так:
720x304 23.98fps 1939Kbps [Video 0]
Dolby 48000Hz 6ch 448Kbps [Audio 1]
trop 
Свій


З нами з: 25.04.16
Востаннє: 18.09.21
Повідомлень: 143

2016-08-07 12:30  
дякую
DuB.Bog 
Свій


З нами з: 14.04.13
Востаннє: 16.09.21
Повідомлень: 88

2018-01-12 02:37  
https://mediaarea.net/uk/Info (у розробника цілий пакет утиліток для роботи з відео, це - одна з них)
Вшивається в меню файлів, ПКМ - медіаінфо - і миттєво бачимо слідуючу інфу (на приклад):
Видає віконце з такою табличкою:

General
Complete name : G:\Відео вже виклав\10 порад по саморозвитку Радислава Гандапаса.mp4
Format : MPEG-4
Format profile : Base Media / Version 2
Codec ID : mp42
File size : 229 MiB
Duration : 6mn 38s
Overall bit rate mode : Variable
Overall bit rate : 4 830 Kbps
Encoded date : UTC 2018-01-08 09:24:16
Tagged date : UTC 2018-01-08 09:24:20
©TIM : 00:00:00:00
©TSC : 25
©TSZ : 1

Video
ID : 1
Format : AVC
Format/Info : Advanced Video Codec
Format profile : [email protected]
Format settings, CABAC : Yes
Format settings, ReFrames : 4 frames
Codec ID : avc1
Codec ID/Info : Advanced Video Coding
Duration : 6mn 38s
Bit rate mode : Variable
Bit rate : 4 667 Kbps
Maximum bit rate : 100.0 Mbps
Width : 1 920 pixels
Height : 1 080 pixels
Display aspect ratio : 16:9
Frame rate mode : Constant
Frame rate : 25.000 fps
Standard : PAL
Color space : YUV
Chroma subsampling : 4:2:0
Bit depth : 8 bits
Scan type : Progressive
Bits/(Pixel*Frame) : 0.090
Stream size : 221 MiB (97%)
Language : English
Encoded date : UTC 2018-01-08 09:24:16
Tagged date : UTC 2018-01-08 09:24:16
Color range : Limited
Color primaries : BT.709
Transfer characteristics : BT.709
Matrix coefficients : BT.709

Audio
ID : 2
Format :
Format/Info : Advanced Audio Codec
Format profile : LC
Codec ID : 40
Duration : 6mn 38s
Source duration : 6mn 38s
Bit rate mode : Variable
Bit rate : 157 Kbps
Maximum bit rate : 210 Kbps
Channel(s) : 1 channel
Channel positions : Front: C
Sampling rate : 48.0 KHz
Compression mode : Lossy
Stream size : 7.47 MiB (3%)
Source stream size : 7.47 MiB (3%)
Language : English
Encoded date : UTC 2018-01-08 09:24:16
Tagged date : UTC 2018-01-08 09:24:16
Ваш часовий пояс: GMT + 2 Години

Нова тема   Відповісти Сторінка:   попередня  1, 2