Ганнібал (Сезон 1, Епізод 1-5) / Hannibal (Season 1, Episode 1-5) (2013) 1080p Ukr

Нові коментарі

Нова тема   Відповісти
Автор Повідомлення
Віталій Прискурій 
Свій


З нами з: 18.06.13
Востаннє: 18.06.20
Повідомлень: 142

2013-06-22 21:55  
Ганнібал (Сезон 1, Епізод 1-5) / Hannibal (Season 1, Episode 1-5) (2013) 1080p

Ганнібал (Сезон 1, Епізод 1-5) / Hannibal (Season 1, Episode 1-5) (2013) 1080p Ukr


Жанр: детектив, кримінальний, драма, трилер, психологічний
Країна: США



Кінокомпанія: Dino De Laurentiis Company, Doheny Productions Inc., Gaumont International Television
Режисер: Ґільєрмо Наварро, Майкл Раймер, Девід Слейд
Актори: Хью Денсі, Мадс Міккельсен, Каролін Давернас, Лара Жан Коростекі, Аарон Абрамс, Лоуренс Фішборн, Етьєнн Парк, Скотт Томпсон, Торіанна Лі, Демор Барнс, Остін Макдональд та ін.

Сюжет:
Вілл Ґрем - обдарований профайлер, який разом з ФБР розшукує серійного вбивцю. Унікальний спосіб мислення Ґрема дарує йому дивовижну здатність глибоко перейматися почуттями іншої людини, навіть психопата. Він може зрозуміти, що ними рухає. Але коли розум переслідуваного вбивці виявляється занадто складним, він звертається за допомогою до доктора Лектера, одного з провідних психіатрів у країні.


Тривалість: 1 серія: 43:00 (цілком серій: 13)
Перелік серій
01. Apéritif
02. Amuse-bouche
03. Potage
04. Ceuf
05. Coquilles
Якість:
Відео:
кодек:
розмір кадру: 1912x1072
бітрейт: ~5000 кб/с

Аудіо1 :
мова: українська
переклад: багатоголосий закадровий | UAVoice
кодек: 5.1
бітрейт: 384 кб/с

Аудіо2 :
мова: англійська
переклад: оригінал
кодек: 5.1
бітрейт: 384 кб/с

Переклад і озвучення виконано:
Переклад: John23.
Озвучка: Віра Іваночко, Юлія Рябухіна, Леонід Статівка, Дмитро Роєцький, Роберт Менус, Дмитро Урсуляк, Сергій Шеремет, Віталій Прискурій.
Монтаж та робота зі звуком: Віталій Прискурій, Дмитро Урсуляк(BOOGud)(1 серія)
Обкладинки: Данило Земляний
Info
General
Unique ID : 190628287420438102871639392239773098625 (0x8F69AC3600E49C1BBE378C73CACD2281)
Complete name : D:\UAVoise\Ганібал\[UAVoice].Hannibal.UKR S01 1080p 5.1\Hannibal.s01e04..1080p.UAVoice. 5.1.
Format :
Format version : Version 2
File size : 1.80 GiB
Duration : 43mn 0s
Overall bit rate : 5 997 Kbps
Encoded date : UTC 2013-07-28 06:40:11
Writing application : v4.2.0 ('No Talking') збірка від Jul 28 2010 18:38:23
Writing library : libebml v1.0.0 + v1.0.0

Video
ID : 1
Format : AVC
Format/Info : Advanced Video Codec
Format profile : [email protected]
Format settings, CABAC : Yes
Format settings, ReFrames : 4 frames
Muxing mode : Header stripping
Codec ID : V_MPEG4/ISO/AVC
Duration : 43mn 0s
Bit rate : 5 110 Kbps
Width : 1 912 pixels
Height : 1 072 pixels
Display aspect ratio : 16:9
Frame rate : 23.976 fps
Color space : YUV
Chroma subsampling : 4:2:0
Bit depth : 8 bits
Scan type : Progressive
Bits/(Pixel*Frame) : 0.104
Stream size : 1.53 GiB (85%)
Language : English
Color primaries : BT.709-5, BT.1361, IEC 61966-2-4, SMPTE RP177
Transfer characteristics : BT.709-5, BT.1361
Matrix coefficients : BT.709-5, BT.1361, IEC 61966-2-4 709, SMPTE RP177

Audio #1
ID : 2
Format : AC-3
Format/Info : Audio Coding 3
Mode extension : CM (complete main)
Muxing mode : Header stripping
Codec ID : A_AC3
Duration : 43mn 0s
Bit rate mode : Constant
Bit rate : 384 Kbps
Channel(s) : 6 channels
Channel positions : Front: L C R, Side: L R, LFE
Sampling rate : 48.0 KHz
Bit depth : 16 bits
Compression mode : Lossy
Stream size : 118 MiB (6%)
Title : UAVoice 5.1
Language : Ukrainian

Audio #2
ID : 3
Format : AC-3
Format/Info : Audio Coding 3
Mode extension : CM (complete main)
Muxing mode : Header stripping
Codec ID : A_AC3
Duration : 43mn 0s
Bit rate mode : Constant
Bit rate : 384 Kbps
Channel(s) : 6 channels
Channel positions : Front: L C R, Side: L R, LFE
Sampling rate : 48.0 KHz
Bit depth : 16 bits
Compression mode : Lossy
Stream size : 118 MiB (6%)
Скріншоти





Додано 5 серію!


Джерело:
Особиста оцінка: 10 - без зайвих вагань рекомендую всім!


Авторський реліз (завантажувати можна без реєстрації)
 Трекер:    Зареєстрований   

Завантажити / скачати серіал українською



відео для новачків



 Зареєстрований:   2014-04-17 14:49
 Розмір:   8.66 GB 
 Оцінка серіалу:   9.2/10 (Голосів: 28)
 UAVoice.com
   
skuline 
Свій


З нами з: 17.12.11
Востаннє: 01.12.20
Повідомлень: 122

2013-07-07 22:56  
а коли продовження?
Віталій Прискурій 
Свій


З нами з: 18.06.13
Востаннє: 18.06.20
Повідомлень: 142

2013-07-09 00:29  
skuline
Завтра, Післязавтра.

Віталій Прискурій 
Свій


З нами з: 18.06.13
Востаннє: 18.06.20
Повідомлень: 142

2013-07-28 09:12  
Додано 4 серію та змінено усі аудіо доріжки на АС3 5.1 [28.07.2013]

Usualman 
Свій


З нами з: 18.05.09
Востаннє: 23.11.20
Повідомлень: 96

2014-02-10 22:30  
Планується озвучувати решту серій?
Віталій Прискурій 
Свій


З нами з: 18.06.13
Востаннє: 18.06.20
Повідомлень: 142

2014-02-22 12:32  
Usualman написано:
Планується озвучувати решту серій?

Є маленька надія, але нічого не обіцяю.

Віталій Прискурій 
Свій


З нами з: 18.06.13
Востаннє: 18.06.20
Повідомлень: 142

2014-04-17 14:50  
Usualman
Додано 5 серію!

kai_hashiro 
Новенький


З нами з: 26.06.14
Востаннє: 29.11.20
Повідомлень: 2

2015-06-18 17:55  
Чи варто чекати решту серій?
так не хочеться іноземною,російською мовою дивитись..

uaxpasha 
VIP


З нами з: 05.08.12
Востаннє: 02.12.20
Повідомлень: 360

2015-08-24 23:12  
"Дякую" за переклад. Навіщо взагалі починати переклад, якщо не будете закінчувати хоча б сезон? Звик до голосів все нормально, потім бум,
-Дивись другий сезон
-А як же перший?
-Забудь про нього. його не існує. дивись другий.
-Але я не розумію що було, чого той мертвий, і взагалі якого біса ви не допереклали?
-Ми юейвойс робимо що хочемо, іди сам до біса, ми і другий повністю не перекладемо!

Neyron13 
Новенький


З нами з: 08.11.14
Востаннє: 01.12.20
Повідомлень: 1

2015-10-12 21:08  
skuline
станьте хтось на роздачу!!! будь-ласка

tetna 
VIP


З нами з: 21.11.14
Востаннє: 01.12.20
Повідомлень: 581

2016-11-20 23:53  
uaxpasha написано:

"Дякую" за переклад. Навіщо взагалі починати переклад, якщо не будете закінчувати хоча б сезон? Звик до голосів все нормально, потім бум,
-Дивись другий сезон
-А як же перший?
-Забудь про нього. його не існує. дивись другий.
-Але я не розумію що було, чого той мертвий, і взагалі якого біса ви не допереклали?
-Ми юейвойс робимо що хочемо, іди сам до біса, ми і другий повністю не перекладемо!

ага . і потім ті люди, що отак озвучують/перекладають, дивуються епітетам на свою адресу..

Додано через 30 секунд:

хочеш-не хочеш а станеш частіше дивитися москальською.

ivankiv11 
Новенький


З нами з: 28.01.13
Востаннє: 30.11.20
Повідомлень: 7

2017-10-26 20:17  
Слава Україні! Станьте на роздачу, будь-ласка!
Ваш часовий пояс: GMT + 2 Години

Нова тема   Відповісти