Самсара / Сансара / Samsara (2011) AVC 720p

Нові коментарі

Нова тема   Відповісти
Автор Повідомлення
ErsGe 
Новенький


З нами з: 13.04.12
Востаннє: 15.08.17
Повідомлень: 3

2013-06-20 15:00  
Самсара / Сансара / Samsara (2011) AVC 720p

Самсара / Сансара / Samsara (2011) AVC 720p


Жанр: Документальний
Країна: США



Режисер: Рон Фріке
Сюжет:
Фільм, повністю відзнятий 70-мм плівку, представляє собою подорож найвражаючими місцями планети (всього у фильмі покажуть 25 країн на 5 континентах). «Самсара» переносить глядача у святі місця землі та в зони стихійних лих, у серце промислових об'єктів і див природи.


Тривалість: 01:42:05
Якість:
Відео:
кодек:
розмір кадру: 1280 х 528
бітрейт: 3737 кб/с

Аудіо:
мова: музичний супровід
кодек: 5.1
бітрейт: 640 кб/с
Info
General
UniqueID : 231209359454260011181358433811252862369 (0xADF14D8983B7F4DEBB6219A199CB5DA1)
Complete name : L:\Samsara.2011..720p.
Format :
File size : 3.18 GiB
Duration : 1h 42mn
Overall bit rate : 4 466 Kbps
Movie name : Самсара / Samsara (2011)
Encoded date : UTC 2013-05-25 16:23:38
Writing application : mkvmerge v3.1.0 ('Happy up here') built on Jan 19 2010 12:09:24
Writing library : libebml v0.7.9 + libmatroska v0.8.1

Video
ID : 1
Format : AVC
Format/Info : Advanced Video Codec
Format profile : [email protected]
Format settings, CABAC : Yes
Format settings, ReFrames : 8 frames
Codec ID : V_MPEG4/ISO/AVC
Duration : 1h 42mn
Bit rate : 3 737 Kbps
Width : 1 280 pixels
Height : 528 pixels
Display aspect ratio : 2.40:1
Frame rate : 23.976 fps
Color space : YUV
Chroma subsampling : 4:2:0
Bit depth : 8 bits
Scan type : Progressive
Bits/(Pixel*Frame) : 0.231
Stream size : 2.66 GiB (84%)
Title : MPEG-4 (AVC)
Writing library : core 130 r2273 b3065e6
Encoding settings

: cabac=1 / ref=8 / deblock=1:-3:-3 / analyse=0x3:0x113 / me=umh / subme=10 / psy=1 / psy_rd=1.00:0.00 / mixed_ref=1 / me_range=32 / chroma_me=1 / trellis=2 / 8x8dct=1 / cqm=0 / deadzone=21,11 / fast_pskip=0 / chroma_qp_offset=-2 / threads=3 / lookahead_threads=1 / sliced_threads=0 / nr=0 / decimate=1 / interlaced=0 / bluray_compat=0 / constrained_intra=0 / bframes=8 / b_pyramid=2 / b_adapt=2 / b_bias=0 / direct=3 / weightb=1 / open_gop=0 / weightp=2 / keyint=240 / keyint_min=23 / scenecut=40 / intra_refresh=0 / rc=crf / mbtree=0 / crf=17.7 / qcomp=0.60 / qpmin=10 / qpmax=51 / qpstep=4 / ip_ratio=1.40 / pb_ratio=1.30 / aq=1:0.80

Language : English

Audio
ID : 2
Format : AC-3
Format/Info : Audio Coding 3
Mode extension : CM (complete main)
Codec ID : A_AC3
Duration : 1h 42mn
Bit rate mode : Constant
Bit rate : 640 Kbps
Channel(s) : 6 channels
Channel positions : Front: L C R, Side: L R, LFE
Sampling rate : 48.0 KHz
Bit depth : 16 bits
Compression mode : Lossy
Stream size : 467 MiB (14%)
Title : 5.1 @ 640 Kbps (Soundtrack)
Language : English
Скріншоти



Джерело:
Особиста оцінка: 10 - без зайвих вагань рекомендую всім!


 Трекер:    Зареєстрований   

Завантажити / скачати фільм українською



відео для новачків



 Зареєстрований:   2013-06-20 15:00
 Розмір:   3.18 GB 
 Оцінка фільму:   9.3/10 (Голосів: 25)
   
Слоник24 
Відео Гуртом - підтримка та поширення
Відео Гуртом - підтримка та поширення


З нами з: 10.03.10
Востаннє: 17.08.17
Повідомлень: 228

2013-06-20 17:49  
Привіт. Чомусь не завантажується. Торент каже, що попередній том ще не змонтовано. Не в курсі що це може бути?

Додано через 2 хвилини 4 секунди:

Все. Знаю чому не вантажиться. Зберігав не вінчестер USB який не під'єднав.

ТОЛЯН 
Поважний учасник


З нами з: 01.07.11
Востаннє: 25.06.17
Повідомлень: 245

2013-06-20 19:03  
Толока » Відео » HD українською » Документальні фільми в HD

і шо тут українською?

модератор 
Забанено
Забанено


З нами з: 13.02.13
Востаннє: 20.06.13
Повідомлень: 2

2013-06-20 19:05  
ТОЛЯН написано:
і шо тут українською?

нічо



4.4, видано kino.
Леді22 
Забанено
Забанено


З нами з: 05.04.14
Востаннє: 15.03.15
Повідомлень: 234

2014-07-10 16:49  
Незважаючи на високий бал імдб і на яскраві картинки, картинка це і все, що має цей фільм. Взагалі-то я змогла подивитись його хвилин 25 і все, так знудилась...як на мене, фільм абсолютно ПУСТИЙ. шкода
Medyza 
Новенький


З нами з: 20.06.14
Востаннє: 14.08.17
Повідомлень: 3

2015-01-29 22:31  
фільм гарний, особливо для тих, хто в темі
AndrewFG 
VIP


З нами з: 31.10.10
Востаннє: 17.08.17
Повідомлень: 306

2016-09-12 22:12  
Глибокий фільм зі світовими сенсами...
Drakoshka 
Localize Team
Localize Team


З нами з: 12.01.13
Востаннє: 07.08.17
Повідомлень: 113

2017-08-05 16:13  
9/10

Абсолютно унікальна в своєму роді документалка. Я ще досі під враженням

Ваш часовий пояс: GMT + 2 Години

Нова тема   Відповісти