Діти вовка: Аме та Юкі / Ооkami Kodomo no Ame to Yuki / The Wolf Children Ame and Yuki (2012) 720p

Нові коментарі

Нова тема   Відповісти
Автор Повідомлення
ihabi 
Поважний учасник


З нами з: 01.03.13
Востаннє: 07.08.17
Повідомлень: 247

2013-06-11 22:56  
Діти вовка: Аме та Юкі / Ооkami Kodomo no Ame to Yuki / The Wolf Children Ame and Yuki (2012) 720p [Fix]

Діти вовка: Аме та Юкі / Ооkami Kodomo no Ame to Yuki / The Wolf Children Ame and Yuki (2012) 720p


Жанр: драма
Країна: Японія



8.93 (592 голосів)

Кінокомпанія: Studio Chizu
Режисер: Мамору Хосода
Ролі озвучують: Куміко Асо, Меґумі Хаяшібара, Такума Хіраока

Сюжет:
Історія фільму починається, коли молода 19-річна студентка на ім'я Хана зустрічає і "казково" закохується в "людину-вовка". Після одруження, Хана народжує двох діточок - старшу дочку на ім'я Юкі ("сніг"), яка народилася сніжного дня, і молодшого хлопчика Аме ("дощ"), який народився дощового дня. Коли батько-вовк раптово помирає, Хана вирішує переїхати в провінційне містечко подалі від великого міста.


Тривалість: 1 серія: 01:57:04
Якість:
Відео:
кодек:
розмір кадру: 1280 х 720
бітрейт: 1 072 кб/с

Аудіо:
мова: українська
переклад: багатоголосий закадровий
кодек: 2.0
бітрейт: 192 кб/с
Info

Video
ID : 1
Format : AVC
Format/Info : Advanced Video Codec
Format profile : [email protected]
Format settings, CABAC : Yes
Format settings, ReFrames : 1 frame
Codec ID : V_MPEG4/ISO/AVC
Duration : 1h 57mn
Bit rate : 1 072 Kbps
Width : 1 280 pixels
Height : 720 pixels
Display aspect ratio : 16:9
Frame rate mode : Constant
Frame rate : 23.976 fps
Color space : YUV
Chroma subsampling : 4:2:0
Bit depth : 8 bits
Scan type : Progressive
Bits/(Pixel*Frame) : 0.049
Stream size : 898 MiB (83%)
Writing library : core 128
Default : Yes
Forced : No

Audio
ID : 2
Format : AC-3
Format/Info : Audio Coding 3
Mode extension : CM (complete main)
Format settings, Endianness : Big
Codec ID : A_AC3
Duration : 1h 57mn
Bit rate mode : Constant
Bit rate : 192 Kbps
Channel(s) : 2 channels
Channel positions : Front: L R
Sampling rate : 48.0 KHz
Bit depth : 16 bits
Compression mode : Lossy
Stream size : 161 MiB (15%)
Default : Yes
Forced : No
Переклад та озвучення виконано:
Переклад:
Текст читали: Sladkoeshka, Korzhik, Kallaider, ihabi, Konstantinych, Zebadiya, Lomaev.
Робота зі звуком: Lomaev
Постер: ihabi

Джерело: MelodicVoiceStudio


Скріншоти








Виправлена версія, прохання перезавантажити торент-файл!


Особиста оцінка: 10 - без зайвих вагань рекомендую всім!


Авторський реліз (завантажувати можна без реєстрації)
 Трекер:    Зареєстрований   

Завантажити / скачати аніме українською



відео для новачків



 Зареєстрований:   2013-06-12 15:27
 Розмір:   1.05 GB 
 Оцінка аніме:   9/10 (Голосів: 14)
   
ihabi 
Поважний учасник


З нами з: 01.03.13
Востаннє: 07.08.17
Повідомлень: 247

2013-06-12 15:30  
Були видалені повторювальні фрази.
patriots 
Свій


З нами з: 26.02.08
Востаннє: 17.08.17
Повідомлень: 100

2013-06-13 15:10  
Просто бомба. мені дуже сподобалось.
Gedet 
Відео Гуртом - субтитрування
Відео Гуртом - субтитрування


З нами з: 17.11.11
Востаннє: 17.05.17
Повідомлень: 1798

2013-06-13 18:27  
Інакше не робимо.
patriots 
Свій


З нами з: 26.02.08
Востаннє: 17.08.17
Повідомлень: 100

2013-06-14 09:27  
Пробачте, але я не про озвучування :) У озвучки є певні недоліки: дитячі голоси - зовсім не схожі на дитячі :) та і емоційного забарвлення позбавлена майже вся звукова доріжка . Але загалом добре. Дякую
Gedet 
Відео Гуртом - субтитрування
Відео Гуртом - субтитрування


З нами з: 17.11.11
Востаннє: 17.05.17
Повідомлень: 1798

2013-06-14 11:29  
Та я теж не про озвучку, а про фільм.
NeetScrool 
Відео Гуртом - фільмокрай
Відео Гуртом - фільмокрай


З нами з: 10.01.13
Востаннє: 17.08.17
Повідомлень: 2612

2013-06-14 12:49  
Баланс звуку як на мене не ок. Деякі слова з першого разу не розібрати.
ihabi 
Поважний учасник


З нами з: 01.03.13
Востаннє: 07.08.17
Повідомлень: 247

2013-06-14 14:20  
NeetScrool є таке.
TeronUA 
VIP


З нами з: 13.02.09
Востаннє: 17.08.17
Повідомлень: 283

2013-07-17 19:29  
Треба подивитись!)
Frunze 
Новенький


З нами з: 01.02.09
Востаннє: 20.07.15
Повідомлень: 17

2014-10-26 18:27  
Просто 10 з 10 робота.
Хоч і банальщина, але дуже красиво і няшно.

Ваш часовий пояс: GMT + 2 Години

Нова тема   Відповісти