Пригоди імператора / The Emperor's New Groove (2000) 1080p Ukr/Eng | Sub Eng

Нові коментарі

Нова тема   Відповісти
Автор Повідомлення
Anonymous 







2013-06-10 12:44  
Пригоди імператора / The Emperor's New Groove (2000) 1080p Ukr/Eng | Sub Eng



Жанр: мультфільм, фентезі, комедія, пригодницький, сімейний
Країна: США



Кінокомпанія: Walt Disney Feature Animation, Walt Disney Pictures
Режисер: Марк Діндал / Mark Dindal
Ролі озвучили: Девід Спейд / David Spade, Джон Ґудмен / John Goodman, Ерта Кітт / Eartha Kitt, Патрік Bарбертон / Patrick Warburton, Венді Малік / Wendie Malick, Келліан Келсо / Kellyann Kelso, Стівен Джей. Андерсон / Stephen J. Anderson, Елі Рассел Лінец / Eli Russell Linnetz, Боб Берґен / Bob Bergen, Роджер Бампасс / Rodger Bumpass та інші

Сюжет:
Як і належить царственній особі, імператор Куско - дуже зайнята людина. Але останнє його заняття загрожує обернутися великими неприємностями: правитель вирішив побудувати для себе водний парк, попередньо знісши одне з сіл королівства. Цей план неодмінно б втілився в життя, якби неприємність не відбулася вже з самим імператором: недруги перетворили його на ламу! Але напасті на цьому не закінчилися: єдиною людиною, яка могла допомогти імператорові повернутися на трон і у власне тіло, виявляється житель села, приреченого на страту. Дорога додому для Куско обіцяє бути дуже довгою.


рейтинг MPAA: G - нема вікових обмежень
Вікова категорія: 0+

Тривалість: 01:18:23
Якість: 1080p
Відео:
кодек:
розмір кадру: 1820x1080
бітрейт: 7088 кб/с

Аудіо # 1: - Студія LeDoyen , з iTunes
мова: українська
переклад: професійний дубльований
Ролі дублювали: Андрій Федінчик (Девід Спейд/Імператор Кузко), Андрій Мостренко, Олександр Ігнатуша (Джон Ґудмен/Пача), Лариса Руснак (Ерта Кітт/Ізма), Олексій Богданович (Патрік Варбертон/Кронк), Наталя Ярошенко (Венді Малік), Назар Задніпровський? та інші.
кодек: 2.0 (стерео)
бітрейт: 192 кб/с
Порівняння спектрів українських доріжок з iTunes та з ТБ:

Окрім кращого спектру, доріжка з iTunes має справжнє стерео, а не просто два однакові моно канали.

Аудіо # 2:
мова: англійська
переклад: оригінал
кодек: 5.1
бітрейт: 448 кб/с

Субтитри:
мова: англійська
тип: програмні (м'які)
формат: *.srt

Збережено оригінальні розділи, як на Blu-ray.
Info та
[info]: frame I:1003 Avg QP: 9.86 size:260673
[info]: frame P:33296 Avg QP:12.57 size: 69624
[info]: frame B:78483 Avg QP:14.33 size: 20205
============================================================
General
Unique ID : 203438093018861818242315896455116744848 (0x990CC06371D9F121A4AFD4A09DD1E890)
Complete name : The.Emperor's.New.Groove.2000..1080p.Ukr.Eng.
Format :
Format version : Version 4 / Version 2
File size : 4.23 GiB
Duration : 1h 18mn
Overall bit rate : 7 708 Kbps
Movie name : Пригоди імператора / The Emperor's New Groove / Похождения императора (2000)
Encoded date : UTC 2013-07-21 13:12:36
Writing application : mkvmerge v6.3.0 ('You can't stop me!') built on Jun 28 2013 20:09:41
Writing library : libebml v1.3.0 + libmatroska v1.4.0

Video
ID : 1
Format : AVC
Format/Info : Advanced Video Codec
Format profile : [email protected]
Format settings, CABAC : Yes
Format settings, ReFrames : 4 frames
Codec ID : V_MPEG4/ISO/AVC
Duration : 1h 18mn
Bit rate : 7 088 Kbps
Width : 1 820 pixels
Height : 1 080 pixels
Display aspect ratio : 1.685
Frame rate mode : Constant
Frame rate : 23.976 fps
Color space : YUV
Chroma subsampling : 4:2:0
Bit depth : 8 bits
Scan type : Progressive
Bits/(Pixel*Frame) : 0.150
Stream size : 3.80 GiB (90%)
Title : Пригоди імператора / The Emperor's New Groove / Похождения императора (2000) [Freeisland-taty75]
Writing library : core 133 r2334 a3ac64b
Encoding settings : cabac=1 / ref=4 / deblock=1:0:0 / analyse=0x3:0x133 / me=umh / subme=10 / psy=1 / psy_rd=0.00:0.00 / mixed_ref=1 / me_range=32 / chroma_me=1 / trellis=2 / 8x8dct=1 / cqm=0 / deadzone=21,11 / fast_pskip=0 / chroma_qp_offset=0 / threads=6 / lookahead_threads=1 / sliced_threads=0 / nr=0 / decimate=1 / interlaced=0 / bluray_compat=0 / constrained_intra=0 / bframes=8 / b_pyramid=2 / b_adapt=2 / b_bias=0 / direct=3 / weightb=1 / open_gop=0 / weightp=2 / keyint=240 / keyint_min=24 / scenecut=40 / intra_refresh=0 / rc_lookahead=50 / rc=2pass / mbtree=0 / bitrate=7088 / ratetol=2.0 / qcomp=1.00 / qpmin=0 / qpmax=51 / qpstep=4 / cplxblur=20.0 / qblur=0.5 / vbv_maxrate=50000 / vbv_bufsize=62500 / nal_hrd=none / ip_ratio=1.40 / pb_ratio=1.30 / aq=1:1.00
Language : English
Default : Yes
Forced : No
Color primaries : BT.709
Transfer characteristics : BT.709
Matrix coefficients : BT.709

Audio #1
ID : 2
Format : AC-3
Format/Info : Audio Coding 3
Mode extension : CM (complete main)
Format settings, Endianness : Big
Codec ID : A_AC3
Duration : 1h 18mn
Bit rate mode : Constant
Bit rate : 192 Kbps
Channel(s) : 2 channels
Channel positions : Front: L R
Sampling rate : 48.0 KHz
Bit depth : 16 bits
Compression mode : Lossy
Stream size : 108 MiB (2%)
Title : Dub [LeDoyen-iTunes] 2.0 (stereo) 192 Kbps [Hurtom-karvai0]
Language : Ukrainian
Default : Yes
Forced : No

Audio #2
ID : 3
Format : AC-3
Format/Info : Audio Coding 3
Mode extension : CM (complete main)
Format settings, Endianness : Big
Codec ID : A_AC3
Duration : 1h 18mn
Bit rate mode : Constant
Bit rate : 448 Kbps
Channel(s) : 6 channels
Channel positions : Front: L C R, Side: L R, LFE
Sampling rate : 48.0 KHz
Bit depth : 16 bits
Compression mode : Lossy
Stream size : 252 MiB (6%)
Title : Original
Language : English
Default : No
Forced : No

Text
ID : 4
Format : UTF-8
Codec ID : S_TEXT/UTF8
Codec ID/Info : UTF-8 Plain Text
Title : Eng full
Language : English
Default : No
Forced : No

Menu
00:00:00.000 : :Chapter 01
00:01:24.250 : :Chapter 02
00:03:57.320 : :Chapter 03
00:04:27.517 : :Chapter 04
00:05:29.495 : :Chapter 05
00:08:08.488 : :Chapter 06
00:10:36.135 : :Chapter 07
00:11:30.439 : :Chapter 08
00:12:50.644 : :Chapter 09
00:17:10.029 : :Chapter 10
00:20:11.418 : :Chapter 11
00:23:28.490 : :Chapter 12
00:27:06.958 : :Chapter 13
00:29:12.667 : :Chapter 14
00:34:02.957 : :Chapter 15
00:35:49.522 : :Chapter 16
00:36:30.313 : :Chapter 17
00:38:23.134 : :Chapter 18
00:43:54.381 : :Chapter 19
00:46:32.331 : :Chapter 20
00:53:05.557 : :Chapter 21
00:54:08.912 : :Chapter 22
00:55:06.303 : :Chapter 23
00:57:25.191 : :Chapter 24
01:00:41.554 : :Chapter 25
01:01:44.534 : :Chapter 26
01:09:54.899 : :Chapter 27
01:12:16.832 : :Chapter 28
01:18:23.949 : :Chapter 29


Джерела та подяки: ріп відео, оригінальні звук та субтитри - taty75 (Freeisland); українська доріжка - iTunes, karvai0 (Гуртом); український постер - Офіційний (iTunes).

Особиста оцінка: 10 - рекомендую всім дітям та їх батькам

21.07.2013 торрент оновлено, замінено українську доріжку від 1+1 на більш якісну з iTunes. Дубляж той самий.


ЗАЛИШАЙТЕСЬ ЯКОМОГА ДОВШЕ НА РОЗДАЧІ!

СКАЧАВ САМ - ДАЙ СКАЧАТИ ІНШИМ


Срібний реліз (на рейтинг впливає 50% завантаженого)
 Трекер:    Зареєстрований   

Завантажити / скачати мультфільм українською



відео для новачків



 Зареєстрований:   2013-07-21 23:00
 Розмір:   4.23 GB 
 Оцінка мультфільму:   7.2/10 (Голосів: 32)
   
Інші релізи
Ваш часовий пояс: GMT + 2 Години

Нова тема   Відповісти