Ліло та Стіч. Дилогія / Lilo & Stitch. Dilogy (2002-2005) 1080p Ukr/Eng | Sub Ukr/Eng

Нові коментарі

Нова тема   Відповісти
Автор Повідомлення
Anonymous 







2013-06-09 00:57  
Ліло та Стіч. Дилогія / Lilo & Stitch. Dilogy (2002-2005) 1080p Ukr/Eng | Sub Ukr/Eng

Ліло та Стіч / Lilo & Stitch (2002) 1080p Ukr/Eng | Sub Ukr/Eng

Ліло та Стіч / Lilo & Stitch (2002) 1080p Ukr/Eng | Sub Ukr/Eng



Жанр: мультфільм, фантастика, комедія, пригоди, сімейний
Країна: США



Кінокомпанія: Walt Disney Feature Animation, Walt Disney Pictures
Режисер: Дін ДеБлуа / Dean DeBlois, Кріс Сандерс / Chris Sanders
Ролі озвучують: Дейві Чейз / Daveigh Chase (Lilo), Кріс Сандерс / Chris Sanders, Тіа Каррере, Девід Огден Стаєрс, Кевін МакДоналд, Вінг Реймс, Зоі Кедвел, Джейсон Скот Лі, Кевін Майкл Річардсон, Сюзан Хегерті, Емі Хілл.

Сюжет:
Ліло - маленька дівчинка, що живе на Гаваях. Вона сирота і живе разом зі своєю старшою сестрою Нанні. Ліло любить всіх тварин, але найбільше вона подружилася з собачкою на ім'я Стіч, яка насправді зовсім не собачка, а - замаскований інопланетянин. Справа була так: якось злочинця на ім'я Стіч переправляли в галактичну в'язницю, але йому вдалося вислизнути і приземлитися на Землі, де він і зустрів Ліло. І тут Стіч прикинувся собакою, щоб сховатися від переслідування галактичної поліції. Тепер Стіч вчиться тому, чому не був навчений - турботі про інших ...


рейтинг MPAA: PG - рекомендується присутність батьків
Вікова категорія: 6+

Тривалість: 01:25:14
Якість: 1080p
Відео:
кодек:
розмір кадру: 1820x1080
бітрейт: 6320 кб/с

Аудіо # 1:
мова: українська
переклад: професійний дубльований - LeDoyen Studio, запис з Disney Channel Україна
Ролі дублювали: Етель Ененберг, Павло Скороходько, Інна Бєлікова, Володимир Ніколаєнко, Василь Мазур, Ірина Дорошенко, Олександр Ігнатуша, Дмитро Малков та інші. Режисер дубляжу Анна Пащенко, переклад Надії Бойван, звукорежисер Олексій Бевз, асистент режисера дубляжу Ольга Боєва.
кодек: 2.0
бітрейт: 192 кб/с

Аудіо # 2:
мова: англійська
переклад: оригінал
кодек: 5.1
бітрейт: 384 кб/с

Субтитри # 1:
мова: українська (повні)
тип: програмні (м'які)
формат: *.srt

Субтитри # 2:
мова: англійська (повні)
тип: програмні (м'які)
формат: *.srt

Збережено оригінальні розділи, як на Blu-ray.
Info та
[info]: frame I:1059 Avg QP:12.04 size:273101
[info]: frame P:35588 Avg QP:14.00 size: 62959
[info]: frame B:85980 Avg QP:15.52 size: 17594
===================================================
General
Unique ID : 201469742172131782751475753073144783622 (0x9791A932F3EC853D9D514AB91BB46306)
Complete name : Lilo.and.Stich.2002..1080p.Ukr.Eng.
Format :
Format version : Version 4 / Version 2
File size : 4.11 GiB
Duration : 1h 25mn
Overall bit rate : 6 892 Kbps
Movie name : Ліло та Стіч / Lilo & Stitch / Лило и Стич (2002)
Encoded date : UTC 2013-06-06 09:49:44
Writing application : mkvmerge v6.2.0 ('Promised Land') built on Apr 28 2013 12:22:01
Writing library : libebml v1.3.0 + libmatroska v1.4.0

Video
ID : 1
Format : AVC
Format/Info : Advanced Video Codec
Format profile : [email protected]
Format settings, CABAC : Yes
Format settings, ReFrames : 4 frames
Codec ID : V_MPEG4/ISO/AVC
Duration : 1h 25mn
Bit rate : 6 320 Kbps
Width : 1 820 pixels
Height : 1 080 pixels
Display aspect ratio : 1.685
Frame rate mode : Constant
Frame rate : 23.976 fps
Color space : YUV
Chroma subsampling : 4:2:0
Bit depth : 8 bits
Scan type : Progressive
Bits/(Pixel*Frame) : 0.134
Stream size : 3.68 GiB (90%)
Title : Ліло та Стіч / Lilo & Stitch / Лило и Стич (2002) [Freeisland-taty75]
Writing library : core 133 r2334 a3ac64b
Encoding settings : cabac=1 / ref=4 / deblock=1:0:0 / analyse=0x3:0x133 / me=umh / subme=10 / psy=1 / psy_rd=1.00:0.00 / mixed_ref=1 / me_range=32 / chroma_me=1 / trellis=2 / 8x8dct=1 / cqm=0 / deadzone=21,11 / fast_pskip=0 / chroma_qp_offset=-2 / threads=6 / lookahead_threads=1 / sliced_threads=0 / nr=0 / decimate=1 / interlaced=0 / bluray_compat=0 / constrained_intra=0 / bframes=10 / b_pyramid=2 / b_adapt=2 / b_bias=0 / direct=3 / weightb=1 / open_gop=0 / weightp=2 / keyint=240 / keyint_min=24 / scenecut=40 / intra_refresh=0 / rc_lookahead=50 / rc=2pass / mbtree=0 / bitrate=6320 / ratetol=2.0 / qcomp=1.00 / qpmin=0 / qpmax=51 / qpstep=4 / cplxblur=20.0 / qblur=0.5 / vbv_maxrate=50000 / vbv_bufsize=62500 / nal_hrd=none / ip_ratio=1.40 / pb_ratio=1.30 / aq=1:1.00
Language : English
Default : Yes
Forced : No
Color primaries : BT.709
Transfer characteristics : BT.709
Matrix coefficients : BT.709

Audio #1
ID : 2
Format : AC-3
Format/Info : Audio Coding 3
Mode extension : CM (complete main)
Format settings, Endianness : Big
Codec ID : A_AC3
Duration : 1h 25mn
Bit rate mode : Constant
Bit rate : 192 Kbps
Channel(s) : 2 channels
Channel positions : Front: L R
Sampling rate : 48.0 KHz
Bit depth : 16 bits
Compression mode : Lossy
Stream size : 117 MiB (3%)
Title : Dub [Disney Channel Ukraine - LeDoyen] 2.0 192 Kbps
Language : Ukrainian
Default : Yes
Forced : No

Audio #2
ID : 3
Format : AC-3
Format/Info : Audio Coding 3
Mode extension : CM (complete main)
Format settings, Endianness : Big
Codec ID : A_AC3
Duration : 1h 25mn
Bit rate mode : Constant
Bit rate : 384 Kbps
Channel(s) : 6 channels
Channel positions : Front: L C R, Side: L R, LFE
Sampling rate : 48.0 KHz
Bit depth : 16 bits
Compression mode : Lossy
Stream size : 234 MiB (6%)
Title : Original
Language : English
Default : No
Forced : No

Text #1
ID : 4
Format : UTF-8
Codec ID : S_TEXT/UTF8
Codec ID/Info : UTF-8 Plain Text
Title : Ukr full [Hurtom-w2958l]
Language : Ukrainian
Default : No
Forced : No

Text #2
ID : 5
Format : UTF-8
Codec ID : S_TEXT/UTF8
Codec ID/Info : UTF-8 Plain Text
Title : Eng full
Language : English
Default : No
Forced : No

Menu
00:00:00.000 : en:00:00:00.000
00:02:55.884 : en:00:02:55.884
00:06:33.893 : en:00:06:33.893
00:08:29.383 : en:00:08:29.383
00:09:57.972 : en:00:09:57.972
00:14:55.895 : en:00:14:55.895
00:19:58.822 : en:00:19:58.822
00:21:31.999 : en:00:21:31.999
00:23:54.391 : en:00:23:54.391
00:24:54.951 : en:00:24:54.951
00:28:41.261 : en:00:28:41.261
00:30:26.491 : en:00:30:26.491
00:31:43.943 : en:00:31:43.943
00:35:00.348 : en:00:35:00.348
00:36:37.653 : en:00:36:37.653
00:39:30.159 : en:00:39:30.159
00:40:59.748 : en:00:40:59.748
00:46:05.012 : en:00:46:05.012
00:49:34.012 : en:00:49:34.012
00:50:25.689 : en:00:50:25.689
00:52:08.291 : en:00:52:08.291
00:55:11.433 : en:00:55:11.433
00:55:48.887 : en:00:55:48.887
00:57:18.977 : en:00:57:18.977
01:02:33.624 : en:01:02:33.624
01:03:41.150 : en:01:03:41.150
01:05:07.153 : en:01:05:07.153
01:07:53.235 : en:01:07:53.235
01:13:53.804 : en:01:13:53.804
01:17:18.634 : en:01:17:18.634
01:25:14.067 : en:01:25:14.067
Ліло та Стіч 2 / Lilo & Stitch 2: Stitch Has a Glitch (2005) 1080p Ukr/Eng | Sub Ukr/Eng

Ліло та Стіч 2 / Lilo & Stitch 2: Stitch Has a Glitch (2005) 1080p Ukr/Eng | Sub Ukr/Eng



Жанр: мультфільм, фантастика, драма, комедія, сімейний
Країна: США



Кінокомпанія: DisneyToon Studios
Режисер: Майкл ЛаБаш / Michael LaBash, Ентоні Леондіс / Anthony Leondis
Ролі озвучують: Кріс Сандерс / Chris Sanders, Дакота Феннінг / Dakota Fanning, Тіа Каррере / Tia Carrere, Девід Огден Стаєрс / David Ogden Stiers, Кевін МакДоналд / Kevin McDonald, Кунева Мук / Kunewa Mook, Джейсон Скот Лі / Jason Scott Lee, Вільям Дж.Капарелла / William J. Caparella, Холлістон Колеман / Holliston Coleman.

Сюжет:
Життя Стіча було веселим і безтурботним. Він допомагає Ліло піти по стопах її матері в підготовці до великого танцювального конкурсу на острові. Життя здається ідеальним, поки Стіч не потрапляє в скрутне становище, і тоді все йде шкереберть. І ось прийшла пора Ліло, Нанні, Джамбо та усій їх великій сім'ї послідувати законам «Охани» і прийти на допомогу маленькому веселому другу.


рейтинг MPAA: PG - рекомендується присутність батьків
Вікова категорія: 6+

Тривалість: 01:08:03
Якість: 1080p
Відео:
кодек:
розмір кадру: 1920x1080
бітрейт: 8300 кб/с

Аудіо # 1:
мова: українська
переклад: професійний дубльований - Невафільм Україна (2007), запис з
Режисер дубляжу: Олег Головко
Звукорежисер: Боб Шевяков
Перекладач:: Тетяна Коробова
Ролі дублювали: Євгенія Магда (Ліло), Володимир Терещук (Стіч), Інна Бєлікова (Нані), Дмитро Малков (Девід), Василь Мазур (Джамба), Володимир Ніколаєнко (Пліклі), В'ячеслав Гіндін (Куму) та інші.
кодек: 2.0
бітрейт: 192 кб/с

Аудіо # 2:
мова: англійська
переклад: оригінал
кодек: 5.1
бітрейт: 448 кб/с

Субтитри # 1:
мова: українська (повні)
тип: програмні (м'які)
формат: *.srt

Субтитри # 2:
мова: англійська (повні)
тип: програмні (м'які)
формат: *.srt

Збережено оригінальні розділи, як на Blu-ray.
Info та
[info]: frame I:902 Avg QP:12.68 size:273254
[info]: frame P:28033 Avg QP:14.70 size: 83111
[info]: frame B:68980 Avg QP:15.61 size: 24096
======================================================
General
Unique ID : 192620599486248024155888503499805608345 (0x90E960C799560C689D0DF3B52026C999)
Complete name : Lilo.and.Stich.2.2005..1080p.Ukr.Eng.
Format :
Format version : Version 4 / Version 2
File size : 4.25 GiB
Duration : 1h 8mn
Overall bit rate : 8 926 Kbps
Movie name : Ліло та Стіч 2 / Lilo & Stitch 2: Stitch Has a Glitch / Лило и Стич 2: Большая проблема Стича (2005)
Encoded date : UTC 2013-06-07 23:22:22
Writing application : mkvmerge v6.2.0 ('Promised Land') built on Apr 28 2013 12:22:01
Writing library : libebml v1.3.0 + libmatroska v1.4.0

Video
ID : 1
Format : AVC
Format/Info : Advanced Video Codec
Format profile : [email protected]
Format settings, CABAC : Yes
Format settings, ReFrames : 4 frames
Codec ID : V_MPEG4/ISO/AVC
Duration : 1h 8mn
Bit rate : 8 300 Kbps
Width : 1 920 pixels
Height : 1 080 pixels
Display aspect ratio : 16:9
Frame rate mode : Constant
Frame rate : 23.976 fps
Color space : YUV
Chroma subsampling : 4:2:0
Bit depth : 8 bits
Scan type : Progressive
Bits/(Pixel*Frame) : 0.167
Stream size : 3.86 GiB (91%)
Title : Ліло та Стіч 2 / Lilo & Stitch 2: Stitch Has a Glitch / Лило и Стич 2: Большая проблема Стича (2005) [Freeisland-taty75]
Writing library : core 133 r2334 a3ac64b
Encoding settings : cabac=1 / ref=4 / deblock=1:0:0 / analyse=0x3:0x133 / me=umh / subme=10 / psy=1 / psy_rd=1.00:0.00 / mixed_ref=1 / me_range=32 / chroma_me=1 / trellis=2 / 8x8dct=1 / cqm=0 / deadzone=21,11 / fast_pskip=0 / chroma_qp_offset=-2 / threads=6 / lookahead_threads=1 / sliced_threads=0 / nr=0 / decimate=1 / interlaced=0 / bluray_compat=0 / constrained_intra=0 / bframes=10 / b_pyramid=2 / b_adapt=2 / b_bias=0 / direct=3 / weightb=1 / open_gop=0 / weightp=2 / keyint=240 / keyint_min=24 / scenecut=40 / intra_refresh=0 / rc_lookahead=50 / rc=2pass / mbtree=0 / bitrate=8300 / ratetol=2.0 / qcomp=1.00 / qpmin=0 / qpmax=51 / qpstep=4 / cplxblur=20.0 / qblur=0.5 / vbv_maxrate=50000 / vbv_bufsize=62500 / nal_hrd=none / ip_ratio=1.40 / pb_ratio=1.30 / aq=1:1.00
Language : English
Default : Yes
Forced : No
Color primaries : BT.709
Transfer characteristics : BT.709
Matrix coefficients : BT.709

Audio #1
ID : 2
Format : AC-3
Format/Info : Audio Coding 3
Mode extension : CM (complete main)
Format settings, Endianness : Big
Codec ID : A_AC3
Duration : 1h 8mn
Bit rate mode : Constant
Bit rate : 192 Kbps
Channel(s) : 2 channels
Channel positions : Front: L R
Sampling rate : 48.0 KHz
Bit depth : 16 bits
Compression mode : Lossy
Delay relative to video : 18ms
Stream size : 93.7 MiB (2%)
Title : Dub [Neva-Film Ukraine] 2.0 192 Kbps [Hurtom-MutuLI]
Language : Ukrainian
Default : Yes
Forced : No

Audio #2
ID : 3
Format : AC-3
Format/Info : Audio Coding 3
Mode extension : CM (complete main)
Format settings, Endianness : Big
Codec ID : A_AC3
Duration : 1h 8mn
Bit rate mode : Constant
Bit rate : 448 Kbps
Channel(s) : 6 channels
Channel positions : Front: L C R, Side: L R, LFE
Sampling rate : 48.0 KHz
Bit depth : 16 bits
Compression mode : Lossy
Stream size : 219 MiB (5%)
Title : Original
Language : English
Default : No
Forced : No

Text #1
ID : 4
Format : UTF-8
Codec ID : S_TEXT/UTF8
Codec ID/Info : UTF-8 Plain Text
Title : Ukr full
Language : Ukrainian
Default : No
Forced : No

Text #2
ID : 5
Format : UTF-8
Codec ID : S_TEXT/UTF8
Codec ID/Info : UTF-8 Plain Text
Title : Eng full
Language : English
Default : No
Forced : No

Menu
00:00:00.000 : en:00:00:00.000
00:05:29.704 : en:00:05:29.704
00:12:34.879 : en:00:12:34.879
00:18:14.426 : en:00:18:14.426
00:21:57.149 : en:00:21:57.149
00:27:41.618 : en:00:27:41.618
00:37:19.570 : en:00:37:19.570
00:41:01.500 : en:00:41:01.500
00:45:05.244 : en:00:45:05.244
00:47:55.747 : en:00:47:55.747
00:55:28.325 : en:00:55:28.325
01:01:12.251 : en:01:01:12.251
01:08:02.995 : en:01:08:02.995
Джерела та подяки: ріп відео, оригінальні звук та субтитри до обох частин, українська доріжка (І) - taty75 (Freeisland); першоджерело українських доріжок - MutuLI - зведення; запис з ТБ: voan, xslim, mihal_97 (І), karvai0 та stickerz (ІІ) ; українські субтитри - w2958l (І), українські постери - Gelios (всі - Гуртом).

Особиста оцінка: 10 - рекомендую всім дітям та їх батькам, щоб ще раз замислитись про значення сім'ї у нашому житті Happy





ЗАЛИШАЙТЕСЬ ЯКОМОГА ДОВШЕ НА РОЗДАЧІ!
ЗАВАНТАЖИВ САМ - ДАЙ ЗАВАНТАЖИТИ ІНШИМ!


Срібний реліз (на рейтинг впливає 50% завантаженого)
 Трекер:    Зареєстрований   

Завантажити / скачати мультфільм українською



відео для новачків



 Зареєстрований:   2013-06-09 00:57
 Розмір:   8.36 GB 
 Оцінка мультфільму:   7.3/10 (Голосів: 34)
   
Інші релізи
Anonymous 







2017-02-16 10:59  
Ваш часовий пояс: GMT + 2 Години

Нова тема   Відповісти