Cхідний Едем: Король Едему/ Higashi no Eden: Gekijouban I The King of Eden / Eden of The East the Movie I: The King of Eden (2009) 720p

Нові коментарі

Нова тема   Відповісти
Автор Повідомлення
ihabi 
Поважний учасник


З нами з: 01.03.13
Востаннє: 07.08.17
Повідомлень: 247

2013-06-01 02:03  
Cхідний Едем: Король Едему/ Higashi no Eden: Gekijouban I The King of Eden / Eden of The East the Movie I: The King of Eden / (фільм перший) (2009) 720p UKR

Cхідний Едем: Король Едему/ Higashi no Eden: Gekijouban I The King of Eden / Eden of The East the Movie I: The King of Eden (2009) 720p


Жанр: детектив, пригоди, романтика
Країна: Японія



6.86 (1740 голосів)

Кінокомпанія: Production I.G
Режисер: Каміяма Кенджі
Ролі озвучують: Хаямі Саорі, Кумура Рьохей, Кавахара Мотоюкі, Тамагава Сакіко, Тая Хаято

Сюжет:
Історія продовжується з місця, на якому закінчилися події серіалу. Морімі Сакі вирушає до США, щоб знайти Такізаву Акіру. У той же час, інші Селесао продовжують брати участь у "грі". І деякі з них діють небезпечно, з метою знищити Такізаву. Таким чином вони просувають свій варіант покращення стану Японії.


Тривалість: 81:33
Якість:
Відео:
кодек:
розмір кадру: 1280х720
бітрейт: 1 696 кб/с

Аудіо:
мова: українська
переклад: багатоголосий закадровий
кодек: 2.0
бітрейт: 192 кб/с
Info

Video
ID : 1
Format : AVC
Format/Info : Advanced Video Codec
Format profile : [email protected]
Format settings, CABAC : Yes
Format settings, ReFrames : 3 frames
Codec ID : V_MPEG4/ISO/AVC
Duration : 1h 21mn
Bit rate : 1 696 Kbps
Width : 1 280 pixels
Height : 720 pixels
Display aspect ratio : 16:9
Frame rate mode : Constant
Frame rate : 23.976 fps
Color space : YUV
Chroma subsampling : 4:2:0
Bit depth : 8 bits
Scan type : Progressive
Bits/(Pixel*Frame) : 0.077
Stream size : 989 MiB (88%)
Writing library : core 79 r1342 e8501ef
Encoding settings : cabac=1 / ref=3 / deblock=1:1:1 / analyse=0x3:0x113 / me=hex / subme=7 / psy=1 / psy_rd=0.4:0.0 / mixed_ref=1 / me_range=16 / chroma_me=1 / trellis=1 / 8x8dct=1 / cqm=0 / deadzone=21,11 / chroma_qp_offset=-2 / threads=4 / nr=0 / decimate=1 / mbaff=0 / constrained_intra=0 / bframes=6 / b_pyramid=0 / b_adapt=1 / b_bias=0 / direct=1 / wpredb=1 / wpredp=2 / keyint=250 / keyint_min=25 / scenecut=40 / rc_lookahead=40 / rc=crf / mbtree=1 / crf=15.0 / qcomp=0.60 / qpmin=10 / qpmax=51 / qpstep=4 / vbv_maxrate=35000 / vbv_bufsize=25000 / ip_ratio=1.40 / aq=1:0.70
Default : Yes
Forced : No

Audio
ID : 2
Format : AC-3
Format/Info : Audio Coding 3
Mode extension : CM (complete main)
Format settings, Endianness : Big
Codec ID : A_AC3
Duration : 1h 21mn
Bit rate mode : Constant
Bit rate : 192 Kbps
Channel(s) : 2 channels
Channel positions : Front: L R
Sampling rate : 48.0 KHz
Bit depth : 16 bits
Compression mode : Lossy
Stream size : 112 MiB (10%)
Default : No
Forced : No
Переклад та озвучення виконано:
Переклад: ihabi
Редагування: Kallaider
Текст читали:

Робота зі звуком: Lomaev
Постер: ihabi

Джерело: MelodicVoiceStudio


Скріншоти






Особиста оцінка: 9 - давно не бачив настільки якісне кіно



Авторський реліз (завантажувати можна без реєстрації)
 Трекер:    Зареєстрований   

Завантажити / скачати аніме українською



відео для новачків



 Зареєстрований:   2013-06-01 02:09
 Розмір:   1.1 GB 
 Оцінка аніме:   9.8/10 (Голосів: 12)
   
ihabi 
Поважний учасник


З нами з: 01.03.13
Востаннє: 07.08.17
Повідомлень: 247

2013-06-01 02:04  
Авторський реліз!
NeetScrool 
Відео Гуртом - фільмокрай
Відео Гуртом - фільмокрай


З нами з: 10.01.13
Востаннє: 21.08.17
Повідомлень: 2613

2013-06-01 10:07  
сабів немає?
Rimbo 
VIP


З нами з: 30.04.11
Востаннє: 21.08.17
Повідомлень: 306

2013-06-01 10:42  
NeetScrool приєднуюсь до питання.
ihabi 
Поважний учасник


З нами з: 01.03.13
Востаннє: 07.08.17
Повідомлень: 247

2013-06-01 11:29  
Саби є, але, зазвичай, ми їх ніде не публікуємо.
ImfromUkraine 
VIP


З нами з: 18.02.12
Востаннє: 22.08.17
Повідомлень: 289

2013-06-01 15:29  
саби краще б додавали)
а це перший фільм зі скількох?

ihabi 
Поважний учасник


З нами з: 01.03.13
Востаннє: 07.08.17
Повідомлень: 247

2013-06-01 16:44  
ImfromUkraine
Всього 2 фільми. Другий завершує історію.

Сабів не буде. Така в нас політика.

Rimbo 
VIP


З нами з: 30.04.11
Востаннє: 21.08.17
Повідомлень: 306

2013-06-02 09:11  
=/ друня а не політика.
ImfromUkraine 
VIP


З нами з: 18.02.12
Востаннє: 22.08.17
Повідомлень: 289

2013-06-02 13:16  
ihabi
ясно, дякую

TeronUA 
VIP


З нами з: 13.02.09
Востаннє: 22.08.17
Повідомлень: 283

2013-07-27 11:59  
Якраз вчора додивився сезон і тепер хочу подивитись повнометражку!)
Дякую!Happy

Ваш часовий пояс: GMT + 2 Години

Нова тема   Відповісти