The Maneken - Portrait (2013) [FLAC] | Funk / Disco / Dance

Нові коментарі

Нова тема   Відповісти
Автор Повідомлення
muhomor 
VIP


З нами з: 04.12.11
Востаннє: 01.06.17
Повідомлень: 297

2013-05-21 14:34  
The Maneken - Portrait (2013) [FLAC] | Funk / Disco / Dance

The Maneken - Portrait (2013) [FLAC] | Funk / Disco / Dance


Стиль: Funk / Disco / Dance
Країна, місто: Україна, Київ
Сайти: Офіційний сайт
Видавець: MOON Records
Виконавці:
Євген Філатов - вокал, перкусія
Макс Шевченко - гітара
Олексій Гливінський - ударні
Олександр Чунін - бас-гітара
Сергій Єременко - клавішні, програмування
Пісні:
    01. Magic Of The Moment
    02. Love Ride
    03. Обратный Билет
    04. Ghost Town Frowns
    05. Starlight Child
    06. Fast'n'Slow
    07. Tom's Double
    08. Safe Connection
    09. Stop (feat. Open Kids)
    10. Better Days
    Audiochecker

    AUDIOCHECKER v2.0 beta (build 457) - by Dester - [email protected]
    ~~~~~~~~~~~~~~~~~~~~~~~~~~~~~~~~~~

    Started at: вторник, 21. 05. 2013. - 14:28.34
    10 files found

    01 -===- D:\hurtom.com\The Maneken - «Portrait» (2013) (FLAC)\01 The Maneken Magic Of The Moment.flac
    Extracted successfully
    Conclusion: this track is CDDA with probability 100%
    Tempfile successfully deleted.

    02 -===- D:\hurtom.com\The Maneken - «Portrait» (2013) (FLAC)\02 The Maneken Love Ride.flac
    Extracted successfully
    Conclusion: this track is CDDA with probability 100%
    Tempfile successfully deleted.

    03 -===- D:\hurtom.com\The Maneken - «Portrait» (2013) (FLAC)\03 The Maneken Обратный Билет.flac
    Extracted successfully
    Conclusion: this track is CDDA with probability 99%
    Tempfile successfully deleted.

    04 -===- D:\hurtom.com\The Maneken - «Portrait» (2013) (FLAC)\04 The Maneken Ghost Town Frowns.flac
    Extracted successfully
    Conclusion: this track is CDDA with probability 100%
    Tempfile successfully deleted.

    05 -===- D:\hurtom.com\The Maneken - «Portrait» (2013) (FLAC)\05 The Maneken Starlight Child.flac
    Extracted successfully
    Conclusion: this track is CDDA with probability 100%
    Tempfile successfully deleted.

    06 -===- D:\hurtom.com\The Maneken - «Portrait» (2013) (FLAC)\06 The Maneken Fast'n'Slow.flac
    Extracted successfully
    Conclusion: this track is CDDA with probability 100%
    Tempfile successfully deleted.

    07 -===- D:\hurtom.com\The Maneken - «Portrait» (2013) (FLAC)\07 The Maneken Tom's Double.flac
    Extracted successfully
    Conclusion: this track is CDDA with probability 100%
    Tempfile successfully deleted.

    08 -===- D:\hurtom.com\The Maneken - «Portrait» (2013) (FLAC)\08 The Maneken Safe Connection.flac
    Extracted successfully
    Conclusion: this track is CDDA with probability 100%
    Tempfile successfully deleted.

    09 -===- D:\hurtom.com\The Maneken - «Portrait» (2013) (FLAC)\09 The Maneken Stop (feat. Open Kids).flac
    Extracted successfully
    Conclusion: this track is CDDA with probability 100%
    Tempfile successfully deleted.

    10 -===- D:\hurtom.com\The Maneken - «Portrait» (2013) (FLAC)\10 The Maneken Better Days.flac
    Extracted successfully
    Conclusion: this track is CDDA with probability 100%
    Tempfile successfully deleted.

    Finished at: вторник, 21. 05. 2013. - 14:33.02 (operation time: 0:04.27)
    Log

    Exact Audio Copy V1.0 beta 3 from 29. August 2011

    Отчёт EAC об извлечении, выполненном 21. мая 2013, 14:08

    The Maneken / «Portrait»

    Дисковод: ASUS DRW-2014S1T Adapter: 2 ID: 8

    Режим чтения : Достоверность
    Использование точного потока : Да
    Отключение кэша аудио : Да
    Использование указателей C2 : Нет

    Коррекция смещения при чтении : 6
    Способность читать области Lead-in и Lead-out : Нет
    Заполнение пропущенных сэмплов тишиной : Да
    Удаление блоков с тишиной в начале и конце : Нет
    При вычислениях CRC использовались нулевые сэмплы : Да
    Интерфейс : Встроенный Win32-интерфейс для Win NT/2000
    Обработка зазоров : Добавлено к предыдущему треку

    Выходной формат : Пользовательский кодировщик
    Выбранный битрейт : 128 kBit/s
    Качество : Высокий
    Добавление ID3-тега : Нет
    Утилита сжатия : C:\Program Files\Exact Audio Copy\Flac\flac.exe
    Дополнительные параметры : -V -8 -T "Genre=%genre%" -T "Artist=%artist%" -T "Title=%title%" -T "Album=%albumtitle%" -T "Date=%year%" -T "Tracknumber=%tracknr%" -T "Comment=%comment%" %source%

    TOC извлечённого CD

    Трек | Старт | Длительность | Начальный сектор | Конечный сектор
    ---------------------------------------------------------------------
    1 | 0:00.00 | 3:41.57 | 0 | 16631
    2 | 3:41.57 | 3:57.56 | 16632 | 34462
    3 | 7:39.38 | 3:22.37 | 34463 | 49649
    4 | 11:02.00 | 3:54.57 | 49650 | 67256
    5 | 14:56.57 | 3:17.18 | 67257 | 82049
    6 | 18:14.00 | 3:43.38 | 82050 | 98812
    7 | 21:57.38 | 4:26.50 | 98813 | 118812
    8 | 26:24.13 | 3:55.27 | 118813 | 136464
    9 | 30:19.40 | 4:06.19 | 136465 | 154933
    10 | 34:25.59 | 3:07.56 | 154934 | 169014

    Трек 1

    Имя файла D:\Documents and Settings\user\Рабочий стол\«»—0–\01 The Maneken Magic Of The Moment.wav

    Длина предзазора 0:00:02.00

    Пиковый уровень 100.0 %
    Скорость извлечения 4.9 X
    Качество трека 99.9 %
    CRC теста FC78C920
    CRC копии FC78C920
    Копирование... OK

    Трек 2

    Имя файла D:\Documents and Settings\user\Рабочий стол\«»—0–\02 The Maneken Love Ride.wav

    Пиковый уровень 100.0 %
    Скорость извлечения 6.2 X
    Качество трека 100.0 %
    CRC теста 461B1E4D
    CRC копии 461B1E4D
    Копирование... OK

    Трек 3

    Имя файла D:\Documents and Settings\user\Рабочий стол\«»—0–\03 The Maneken Обратный Билет.wav

    Пиковый уровень 100.0 %
    Скорость извлечения 5.6 X
    Качество трека 99.9 %
    CRC теста E5C4B18A
    CRC копии E5C4B18A
    Копирование... OK

    Трек 4

    Имя файла D:\Documents and Settings\user\Рабочий стол\«»—0–\04 The Maneken Ghost Town Frowns.wav

    Пиковый уровень 100.0 %
    Скорость извлечения 6.9 X
    Качество трека 100.0 %
    CRC теста 194CCFF1
    CRC копии 194CCFF1
    Копирование... OK

    Трек 5

    Имя файла D:\Documents and Settings\user\Рабочий стол\«»—0–\05 The Maneken Starlight Child.wav

    Пиковый уровень 100.0 %
    Скорость извлечения 7.0 X
    Качество трека 100.0 %
    CRC теста FB679E4B
    CRC копии FB679E4B
    Копирование... OK

    Трек 6

    Имя файла D:\Documents and Settings\user\Рабочий стол\«»—0–\06 The Maneken Fast'n'Slow.wav

    Пиковый уровень 100.0 %
    Скорость извлечения 7.4 X
    Качество трека 100.0 %
    CRC теста B4E64E4A
    CRC копии B4E64E4A
    Копирование... OK

    Трек 7

    Имя файла D:\Documents and Settings\user\Рабочий стол\«»—0–\07 The Maneken Tom's Double.wav

    Пиковый уровень 100.0 %
    Скорость извлечения 7.9 X
    Качество трека 100.0 %
    CRC теста 451E88E1
    CRC копии 451E88E1
    Копирование... OK

    Трек 8

    Имя файла D:\Documents and Settings\user\Рабочий стол\«»—0–\08 The Maneken Safe Connection.wav

    Пиковый уровень 100.0 %
    Скорость извлечения 7.2 X
    Качество трека 99.9 %
    CRC теста 6EBDB4B4
    CRC копии 6EBDB4B4
    Копирование... OK

    Трек 9

    Имя файла D:\Documents and Settings\user\Рабочий стол\«»—0–\09 The Maneken Stop (feat. Open Kids).wav

    Пиковый уровень 100.0 %
    Скорость извлечения 8.7 X
    Качество трека 100.0 %
    CRC теста A80C9617
    CRC копии A80C9617
    Копирование... OK

    Трек 10

    Имя файла D:\Documents and Settings\user\Рабочий стол\«»—0–\10 The Maneken Better Days.wav

    Пиковый уровень 100.0 %
    Скорость извлечения 8.8 X
    Качество трека 100.0 %
    CRC теста 9A55228D
    CRC копии 9A55228D
    Копирование... OK

    Ошибок не произошло

    Конец отчёта

    ==== Контрольная сумма отчёта 1688210994CF76B0E4B6D7C1EFE49551DB88514A8095766686DE01A4EB78D57B ====

Тривалість: 00:37:28
Мова: англійська (1-2, 4-10), російська (3)
Аудіо-кодек: FLAC
Бітрейт: 963 кб/с
Джерело: ріп зроблено з оригінального CD із власної колекції
Додаткова інформація:
про роботу над альбомом


Якщо Ви справді бажаєте підтримати українське - після прослуховування, якщо музика вам сподобалась, придбайте ліцензійний диск. Підтримаймо вітчизняних виконавців!


Срібний реліз (на рейтинг впливає 50% завантаженого)
 Трекер:    Зареєстрований   

Завантажити / скачати українську музику



відео для новачків



 Зареєстрований:   2013-05-21 14:34
 Розмір:   259 MB 
 Оцінка музики:   6.3/10 (Голосів: 7)
   
Ваш часовий пояс: GMT + 2 Години

Нова тема   Відповісти