Знайомтесь (Знайомтеся) - Джо Блек / Meet Joe Black (1998) 1080p 2xUkr/Eng | Sub Ukr/Eng

Нові коментарі

Нова тема   Відповісти
Автор Повідомлення
Anonymous 







2013-05-08 19:12  
Знайомтесь - Джо Блек / Meet Joe Black (1998) 1080p 2xUkr/Eng | Sub Ukr/Eng

Знайомтесь (Знайомтеся) - Джо Блек / Meet Joe Black (1998) 1080p 2xUkr/Eng | Sub Ukr/Eng

Альтернативний український постер



Жанр: драма, фентезі, мелодрама
Країна: США



Кінокомпанія: Universal Pictures, City Light Films
Режисер: Мартін Брест / Martin Brest
Композитор: Томас Ньюмен / Thomas Newman
Актори: Бред Піт / Brad Pitt, Ентоні Гопкінс / Anthony Hopkins, Клер Форлані / Claire Forlani, Джейк Вебер / Jake Weber, Марсія Ґай Гарден / Marcia Gay Harden, Джеффрі Тембор / Jeffrey Tambor та інші

Сюжет:
Медіа-магнат Вільям Періш має усе, чого душа забажає - успіх, гроші, славу та владу. Напередодні свого 60-річного ювілею до нього завітав загадковий незнайомець. І вже скоро стає зрозуміло, що він має свої плани щодо старого - сама смерть у людській подобі спустилася на землю, щоб провести Вільяма на той світ. Але навіщо ж поспішати... І 'Джо Блек', названий так самим Вільямом, дає останньому стільки часу, скільки той зуміє у смерті виграти. Періш погоджується, сподіваючись в такий спосіб завершити свою земну роботу. Але коли він дізнається, що його донька закохується у Джо, та і той сам не збирається залишати своє кохання на землі, дотриматися обіцянки стає все важче.
Цікаві факти

• Зйомки фільму проходили з 11 червня по 12 листопада 1997 року в Нью-Йорку, місті Ворвік (штат Род-Айленд) і в місті Тенек (штат Нью-Джерсі).
• Впродовж деякого часу ця картина була найдорожчим фільмом, в якому не застосовувалися спецефекти.
• Картина є рімейком фільму 1934 року «Смерть бере відпустку» («Death Takes a Holiday»), спочатку переробленого і випущеного під тією ж назвою в 1971 році.
• Сценарій фільму був створений за п'єсою Альберто Каселла «Смерть бере вихідний».
• Маєток Вільяма Періша в перших і заключних частинах - це будівля Aldrich Mansion в Warwick Neck, Род-Айленд, Наррагансет Затока.
• Під час зйомок у Бреда Піта (Джо Блек) і Клер Форлані (Сьюзан) був короткочасний роман.
• У трейлері фільму лунає музика з «Аполлона 13».
• Бюджет - $90,000,000
рейтинг MPAA: PG-13 - дітям до 13 років перегляд не бажаний
Вікова категорія: 16+

Тривалість: 03:00:33
Якість: 1080p

Відео:
кодек:
розмір кадру: 1920x1040
бітрейт: 8569 кб/с

Аудіо # 1:
мова: українська
переклад: професійний дубльований
кодек: 2.0 (стерео)
бітрейт: 192 кб/с

Аудіо # 2:
мова: українська
переклад: двоголосий закадровий
ролі озвучили: Інна Капінос та Юрій Гребельник
кодек: 5.1
бітрейт: 448 кб/с

Аудіо # 3:
мова: англійська
переклад: оригінал
кодек: 5.1
бітрейт: 640 кб/с

Субтитри # 1:
мова: українська
тип: програмні (м'які)
формат: *.srt

Субтитри # 2:
мова: англійська
тип: програмні (м'які)
формат: *.srt

Збережено оригінальні розділи, як на Blu-ray.
Info та log
Код:

Complete name               : Meet Joe Black (1998) [2xUkr,Eng sub.Ukr,Eng] 1080p [Hurtom].
Format                      :
Format version              : Version 4
File size                   : 12.4 GiB
Duration                    : 3 h 0 min
Overall bit rate            : 9 847 kb/s
Movie name                  : Знайомтесь - Джо Блек / Meet Joe Black (1998) [2xUkr,Eng sub.Ukr,Eng] 1080p [Hurtom]
Encoded date                : UTC 2019-01-13 02:21:25
Writing application         : v30.1.0 ('Forever And More') 64-bit
Writing library             : libebml v1.3.6 + v1.4.9
Cover                       : Yes
Attachments                 : cover.jpg

Video
ID                          : 1
Format                      : AVC
Format/Info                 : Advanced Video Codec
Format profile              : [email protected]
Format settings             : CABAC / 4 Ref Frames
Format settings, CABAC      : Yes
Format settings, ReFrames   : 4 frames
Codec ID                    : V_MPEG4/ISO/AVC
Duration                    : 3 h 0 min
Bit rate                    : 8 569 kb/s
Width                       : 1 920 pixels
Height                      : 1 040 pixels
Display aspect ratio        : 1.85:1
Frame rate mode             : Constant
Frame rate                  : 23.976 (24000/1001) FPS
Color space                 : YUV
Chroma subsampling          : 4:2:0
Bit depth                   : 8 bits
Scan type                   : Progressive
Bits/(Pixel*Frame)          : 0.179
Stream size                 : 10.8 GiB (87%)
Title                       : Знайомтесь - Джо Блек / Meet Joe Black (1998) 1080p
Writing library             : core 130 r2273 b3065e6
Encoding settings           : cabac=1 / ref=4 / deblock=1:-3:-3 / analyse=0x3:0x133 / me=umh / subme=11 / psy=1 / psy_rd=1.00:0.10 / mixed_ref=1 / me_range=32 / chroma_me=1 / trellis=2 / 8x8dct=1 / cqm=0 / deadzone=21,11 / fast_pskip=0 / chroma_qp_offset=-3 / threads=12 / lookahead_threads=1 / sliced_threads=0 / nr=0 / decimate=0 / interlaced=0 / bluray_compat=0 / constrained_intra=0 / bframes=5 / b_pyramid=2 / b_adapt=2 / b_bias=0 / direct=3 / weightb=1 / open_gop=0 / weightp=2 / keyint=240 / keyint_min=23 / scenecut=40 / intra_refresh=0 / rc=2pass / mbtree=0 / bitrate=8569 / ratetol=1.0 / qcomp=0.61 / qpmin=0 / qpmax=69 / qpstep=4 / cplxblur=20.0 / qblur=0.5 / ip_ratio=1.40 / pb_ratio=1.30 / aq=2:0.80
Language                    : English
Default                     : Yes
Forced                      : No

Audio #1
ID                          : 2
Format                      : AC-3
Format/Info                 : Audio Coding 3
Commercial name             : Dolby Digital
Codec ID                    : A_AC3
Duration                    : 3 h 0 min
Bit rate mode               : Constant
Bit rate                    : 192 kb/s
Channel(s)                  : 2 channels
Channel layout              : L R
Sampling rate               : 48.0 kHz
Frame rate                  : 31.250 FPS (1536 SPF)
Bit depth                   : 16 bits
Compression mode            : Lossy
Stream size                 : 248 MiB (2%)
Title                       : Dub [Inter] 2.0 [stereo] 192 Kbps
Language                    : Ukrainian
Service kind                : Complete Main
Default                     : Yes
Forced                      : No

Audio #2
ID                          : 3
Format                      : AC-3
Format/Info                 : Audio Coding 3
Commercial name             : Dolby Digital
Codec ID                    : A_AC3
Duration                    : 3 h 0 min
Bit rate mode               : Constant
Bit rate                    : 448 kb/s
Channel(s)                  : 6 channels
Channel layout              : L R C LFE Ls Rs
Sampling rate               : 48.0 kHz
Frame rate                  : 31.250 FPS (1536 SPF)
Bit depth                   : 16 bits
Compression mode            : Lossy
Stream size                 : 579 MiB (5%)
Title                       : DVO, 5.1 448 kbps [Hurtom-Romczyk (LX340)]
Language                    : Ukrainian
Service kind                : Complete Main
Default                     : No
Forced                      : No

Audio #3
ID                          : 4
Format                      : AC-3
Format/Info                 : Audio Coding 3
Commercial name             : Dolby Digital
Codec ID                    : A_AC3
Duration                    : 3 h 0 min
Bit rate mode               : Constant
Bit rate                    : 640 kb/s
Channel(s)                  : 6 channels
Channel layout              : L R C LFE Ls Rs
Sampling rate               : 48.0 kHz
Frame rate                  : 31.250 FPS (1536 SPF)
Bit depth                   : 16 bits
Compression mode            : Lossy
Stream size                 : 827 MiB (6%)
Title                       : Original, 5.1 640 Kbps
Language                    : English
Service kind                : Complete Main
Default                     : No
Forced                      : No

Text #1
ID                          : 5
Format                      : UTF-8
Codec ID                    : S_TEXT/UTF8
Codec ID/Info               : UTF-8 Plain Text
Duration                    : 2 h 59 min
Bit rate                    : 77 b/s
Count of elements           : 1951
Stream size                 : 101 KiB (0%)
Title                       : Ukr full [Netflix]
Language                    : Ukrainian
Default                     : No
Forced                      : No

Text #2
ID                          : 6
Format                      : UTF-8
Codec ID                    : S_TEXT/UTF8
Codec ID/Info               : UTF-8 Plain Text
Duration                    : 2 h 57 min
Bit rate                    : 56 b/s
Count of elements           : 2122
Stream size                 : 74.0 KiB (0%)
Title                       : Eng full
Language                    : English
Default                     : No
Forced                      : No

Menu
00:00:00.000                : en:A Voice in the Night
00:02:43.830                : en:Lots of Loose Ends
00:11:05.748                : en:Lightening Strikes
00:22:13.165                : en:Meet Joe Black
00:50:30.027                : en:Parrish's Friend
01:01:09.999                : en:The Hospital
01:11:29.910                : en:Family Dinner
01:25:20.990                : en:A Secret Meeting
01:32:19.450                : en:Set Your Heart...
01:37:13.285                : en:Behind My Back
01:44:29.721                : en:The First Time
02:05:46.914                : en:Darkest Secrets
02:17:29.658                : en:I'm Taking Her...
02:21:50.335                : en:You Know Who I Am
02:30:16.507                : en:Death and Taxes
02:36:23.499                : en:Hard to Let Go
02:49:02.340                : en:We've Got Time...
02:54:26.456                : en:End Titles


Код:
[info]: frame I:1790 Avg QP:20.28 size:152473
[info]: frame P:60569 Avg QP:22.68 size: 73134
[info]: frame B:197378 Avg QP:24.67 size: 34932


Джерело: &
Подяки за: українські доріжки - 1) Bohdan237, krigg070 - запис з ТБ, igor911 синхронізація; 2) Romczyk (LX340) - синхронізація (джерело запису невідоме); українські субтитри - krigg070; український постер - D1EGO (всі - Гуртом).

Особиста оцінка: 8 - рекомендую до перегляду

13.01.2019 реліз оновлено: додано українські дубляж та субтитри


Срібний реліз (на рейтинг впливає 50% завантаженого)
 Трекер:    Зареєстрований   

Завантажити / скачати фільм українською



відео для новачків



 Зареєстрований:   2019-01-13 06:35
 Розмір:   12.42 GB 
 Оцінка фільму:   7.6/10 (Голосів: 43)
 ЗАЛИШАЙТЕСЬ ЯКОМОГА ДОВШЕ НА РОЗДАЧІ! ЗАВАНТАЖИВ САМ - ДАЙ ЗАВАНТАЖИТИ ІНШИМ!
   
Anonymous 







2019-01-13 05:59  
Реліз оновлено: додано українські дубляж та субтитри
Siegfried 
VIP


З нами з: 01.11.11
Востаннє: 22.04.19
Повідомлень: 251

2019-01-18 22:44  
Один з найкращих фільмів з Бредом Піттом.
Переглядав неодноразово.
Поставив би його на друге місце після "12 Мавп". Там він просто був на вершині майстерності, як і Брюс.
Вкотре переконуюся, що в 90-х Бред знявся в своїх найкращих ролях.
Потім, схоже, він підхопив досить важку форму зіркової хвороби, а може це на нього відьма Джолі так вплинула, але його гра стала скидатися на якесь кривляння.
Нині він просто торгує фейсом в кадрі.

Щодо власне фільму - він дуже потужний, але це стрічка для мозку і аналізу та оцінювання особистості Смерті і його характеру.

Однозначно раджу.

8/10

leon61 
Свій


З нами з: 09.09.08
Востаннє: 15.04.19
Повідомлень: 67

2019-01-19 20:32  
Цей фільм дуже класний. Від неочікуваного початку, до останньої секунди.

Обов'язковий для перегляду.
10/10

P.S. хоч я і не люблю арахісове масло.

exitvray 
Свій


З нами з: 17.02.13
Востаннє: 22.04.19
Повідомлень: 52

2019-01-19 23:02  
Капець як давно його бачив,щей в колекції не маю-вже качаю....
Ваш часовий пояс: GMT + 2 Години

Нова тема   Відповісти