Сімпсони (Сезон 14. Сезон 15. Сезон 16) / The Simpsons (2002-2004-2005) 720p Ukr/Eng | Sub Eng

Нові коментарі

Нова тема   Відповісти
Сторінка:  1, 2  наступна
Останній раз роздавалося cutsman (2019-02-26)
Автор Повідомлення
4erkov 
Відео Гуртом - запис з ТБ
Відео Гуртом - запис з ТБ


З нами з: 09.10.10
Востаннє: 08.04.21
Повідомлень: 1840

2013-04-21 21:22  
Сімпсони (Сезон 14. Сезон 15. Сезон 16) / The Simpsons (2002-2004-2005) 720p Ukr/Eng | Sub Eng


Жанр: анімаційний ситком, комедія, пародія
Країна: США

Кіностудія / кінокомпанія: Gracie Films, 20th Century Fox Television
Режисер: Метт Грейнінг
Актори/ролі озвучують: Ден Касталанетта (Гомер), Джулі Кавнер (Мардж), Ненсі Картрайт (Барт), Ядлі Сміт (Ліса), Гаррі Ширер (Нед Фландерс і Монтгомері Бернз) та інші.
Сюжет:
Сімпсони (англ. The Simpsons) — найдовший анімаційний серіал в історії американського телебачення: понад 500 епізодів, які, у свою чергу, об'єднані у 23 сезони, приблизно по 20 серій у кожному. Дебютував 17 грудня 1989 року на телеканалі FOX. Серіал «Сімпсони» — сатирична пародія на життя «пересічного» американця, втілена в сім'ї Сімпсонів. Події відбуваються в уявному місті Спрингфілді (англ. Springfield); шоу висміює чисельні аспекти життя людей, американську культуру, суспільство, навіть американське телебачення.

Сімпсони (Сезон 14) / The Simpsons (2002-2003) 720p Ukr/Eng | Sub Eng
Сімпсони (Сезон 14) / The Simpsons (2002-2003) 720p Ukr/Eng | Sub Eng


Жанр: анімаційний ситком, комедія, пародія
Країна: США

Кіностудія / кінокомпанія: Gracie Films, 20th Century Fox Television
Режисер: Метт Грейнінг
Актори/ролі озвучують: Ден Касталанетта (Гомер), Джулі Кавнер (Мардж), Ненсі Картрайт (Барт), Ядлі Сміт (Ліса), Гаррі Ширер (Нед Фландерс і Монтгомері Бернз) та інші.
Сюжет:
Сімпсони (англ. The Simpsons) — найдовший анімаційний серіал в історії американського телебачення: понад 500 епізодів, які, у свою чергу, об'єднані у 23 сезони, приблизно по 20 серій у кожному. Дебютував 17 грудня 1989 року на телеканалі FOX. Серіал «Сімпсони» — сатирична пародія на життя «пересічного» американця, втілена в сім'ї Сімпсонів. Події відбуваються в уявному місті Спрингфілді (англ. Springfield); шоу висміює чисельні аспекти життя людей, американську культуру, суспільство, навіть американське телебачення.
В Україні 14 сезон розпочався 9 січня 2007 року, на каналі M1. Остання серія сезону була показана 26 лютого того ж року. У 2010 році цей сезон транслював канал Кіно (він же 2+2), транслюючи в ефір tvріпи з М1 (звук вони звели під французькі PDTV ріпи). З квітня 2013 року 14 сезон транслює канал Qtv з якісним (порівняно) звуком, не з ріпів.

Тривалість: 1 серія: ~ 21 хв. (цілком серій: 22)
Перелік серій
Сезон 14

14x01 [DABF19] - Хелловін 13 (Treehouse of Horror XIII)
14x02 [DABF22] - Що я робив під час літніх канікул (How I Spent My Strummer Vacation)
14x03 [DABF20] - Барт і Ліса третьокласники (Bart vs. Lisa vs. The Third Grade)
14x04 [DABF18] - Велика мардж (Large Marge)
14x05 [DABF21] - Притулок для бездомних Гельтера (Helter Shelter)
14x06 [EABF01] - Великий бездарний детектив (The Great Louse Detective)
14x07 [EABF02] - Мила Една (Special Edna (a.k.a. Love and Marking)
14x08 [EABF03] - Батько знав так мало (The Dad Who Knew Too Little)
14x09 [EABF04] - В сильних руках Мардж (Strong Arms of The Ma)
14x10 [EABF06] - Молись про що завгодно (Pray Anything)
14x11 [EABF05] - Барт судиться (Barting Over)
14x12 [EABF07] - Змагання з правопису (I'm Spelling as Fast as I Can)
14x13 [EABF08] - І знову народилася зірка (A Star is Born-Again)
14x14 [EABF09] - Красті їде до Вашингтону (Mr. Spritz Goes to Washington)
14x15 [EABF10] - Директор Д'оу (C.E. D'oh)
14x16 [EABF11] - Вибачте, що я прогавила небо ('Scuse Me While I Miss the Sky)
14x17 [EABF12] - Три голубих в готелі (Three Gays of the Condo)
14x18 [EABF13] - Чувак, де моє ранчо? (Dude, Where's My Ranch?)
14x19 [EABF14] - Вірний пес (Old Yeller Belly)
14x20 [EABF15] - Будь ласка зробіть щось з моєю жінкою! (Brake My Wife, Please)
14x21 [EABF16] - Барт оголошує війну (Bart of War)
14x22 [EABF17] - Блюз для крихітки Мо (Moe Baby Blues)

Якість:
Відео:
кодек:
розмір кадру: 960x720
бітрейт: ~ 4200 кб/с

Аудіо # 1:
мова: українська
переклад: професійний дубльований
кодек: 2.0
бітрейт: 192 кб/с

Аудіо # 2:
мова: англійська
переклад: оригінал
кодек: 5.1
бітрейт: 1510 кб/с

Субтитри:
мова: англійська
тип: програмні (м'які)
формат: *.srt
Переклад виконано і озвучено:
Студією "Пілот", на замовлення каналу , трансляція телеканалу .
Інформація про дубляж
Ролі дублювали:
Євген Малуха (Гомер Сімпсон, Мер Квімбі, Завгосп Віллі, Продавець коміксів, Доктор Нік, Ленні Леонард, Професор Фрінк та інші.)
Ганна Левченко (Барт Сімпсон)
Ірина Дорошенко (Мардж Сімпсон, Ліса Сімпсон та інші.)
Юрій Коваленко (Абрахам Сімпсон (дідусь), Нед Фландерс, Барні Ґамбл, Доктор Гібберт, Апу Нахасапімапетілон, Мо Сізлак, Отець Лавджой, Шеф Віґґам, Монтґомері Бернс, Вейлон Смізерс, Клітус, Карл, Кент Брокман, Сеймур Скіннер, Клоун Красті та інші.)
Media-Info
Код:
General
Unique ID                                : 209589365821827037499317944093875640316 (0x9DAD718D8CEB7DD29EA19E4ADDF017FC)
Complete name                            : D:\Релізи\Сімпсони (The Simpsons)\Готово\14x12 - I'm Spelling as Fast as I Can [EABF07] [Hurtom].
Format                                   :
Format version                           : Version 4 / Version 2
File size                                : 925 MiB
Duration                                 : 21mn 51s
Overall bit rate                         : 5 920 Kbps
Movie name                               : 14x12 - I'm Spelling as Fast as I Can [EABF07] [Hurtom]
Encoded date                             : UTC 2010-02-22 21:41:31
Writing application                      : v5.9.0 ('On The Loose') built on Dec  9 2012 15:37:01
Writing library                          : libebml v1.3.0 + v1.4.0

Video
ID                                       : 1
Format                                   : AVC
Format/Info                              : Advanced Video Codec
Format profile                           : [email protected]
Format settings, CABAC                   : Yes
Format settings, ReFrames                : 5 frames
Codec ID                                 : V_MPEG4/ISO/AVC
Duration                                 : 21mn 51s
Bit rate                                 : 4 219 Kbps
Width                                    : 960 pixels
Height                                   : 720 pixels
Display aspect ratio                     : 4:3
Frame rate mode                          : Constant
Frame rate                               : 23.976 fps
Color space                              : YUV
Chroma subsampling                       : 4:2:0
Bit depth                                : 8 bits
Scan type                                : Progressive
Bits/(Pixel*Frame)                       : 0.255
Stream size                              : 641 MiB (69%)
Writing library                          : core 119 r2106 07efeb4
Encoding settings                        : cabac=1 / ref=5 / deblock=1:0:0 / analyse=0x3:0x133 / me=umh / subme=7 / psy=1 / psy_rd=1.00:0.00 / mixed_ref=1 / me_range=16 / chroma_me=1 / trellis=1 / 8x8dct=1 / cqm=0 / deadzone=21,11 / fast_pskip=0 / chroma_qp_offset=-2 / threads=12 / sliced_threads=0 / nr=0 / decimate=1 / interlaced=0 / bluray_compat=0 / constrained_intra=0 / bframes=3 / b_pyramid=2 / b_adapt=2 / b_bias=0 / direct=1 / weightb=1 / open_gop=0 / weightp=2 / keyint=250 / keyint_min=23 / scenecut=40 / intra_refresh=0 / rc_lookahead=40 / rc=2pass / mbtree=1 / bitrate=4219 / ratetol=1.0 / qcomp=0.60 / qpmin=0 / qpmax=69 / qpstep=4 / cplxblur=20.0 / qblur=0.5 / ip_ratio=1.40 / aq=1:1.00
Language                                 : English
Default                                  : Yes
Forced                                   : No

Audio #1
ID                                       : 2
Format                                   : AC-3
Format/Info                              : Audio Coding 3
Mode extension                           : CM (complete main)
Format settings, Endianness              : Big
Codec ID                                 : A_AC3
Duration                                 : 21mn 51s
Bit rate mode                            : Constant
Bit rate                                 : 192 Kbps
Channel(s)                               : 2 channels
Channel positions                        : Front: L R
Sampling rate                            : 48.0 KHz
Bit depth                                : 16 bits
Compression mode                         : Lossy
Stream size                              : 30.0 MiB (3%)
Title                                    : M1
Language                                 : Ukrainian
Default                                  : Yes
Forced                                   : No

Audio #2
ID                                       : 3
Format                                   :
Format/Info                              : Digital Theater Systems
Mode                                     : 16
Format settings, Endianness              : Big
Codec ID                                 : A_DTS
Duration                                 : 21mn 51s
Bit rate mode                            : Constant
Bit rate                                 : 1 509 Kbps
Channel(s)                               : 6 channels
Channel positions                        : Front: L C R, Side: L R, LFE
Sampling rate                            : 48.0 KHz
Bit depth                                : 24 bits
Compression mode                         : Lossy
Stream size                              : 236 MiB (25%)
Language                                 : English
Default                                  : No
Forced                                   : No

Text
ID                                       : 4
Format                                   : UTF-8
Codec ID                                 : S_TEXT/UTF8
Codec ID/Info                            : UTF-8 Plain Text
Language                                 : English
Default                                  : No
Forced                                   : No

Скріншоти:



Подяки:
Запис з Qtv: jonas93, 4erkov, andic, ZheGal, alexandr2783.
-и з M1: Little.
Зведення, реліз: 4erkov.
Сімпсони (Сезон 15) / The Simpsons (2003-2004) 720p Ukr/Eng | Sub Eng
Сімпсони (Сезон 15) / The Simpsons (2003-2004) 720p Ukr/Eng | Sub Eng


Жанр: анімаційний ситком, комедія, пародія
Країна: США

Кіностудія / кінокомпанія: Gracie Films, 20th Century Fox Television
Режисер: Метт Грейнінг
Актори/ролі озвучують: Ден Касталанетта (Гомер), Джулі Кавнер (Мардж), Ненсі Картрайт (Барт), Ядлі Сміт (Ліса), Гаррі Ширер (Нед Фландерс і Монтгомері Бернз) та інші.
Сюжет:
Сімпсони (англ. The Simpsons) — найдовший анімаційний серіал в історії американського телебачення: понад 500 епізодів, які, у свою чергу, об'єднані у 23 сезони, приблизно по 20 серій у кожному. Дебютував 17 грудня 1989 року на телеканалі FOX. Серіал «Сімпсони» — сатирична пародія на життя «пересічного» американця, втілена в сім'ї Сімпсонів. Події відбуваються в уявному місті Спрингфілді (англ. Springfield); шоу висміює чисельні аспекти життя людей, американську культуру, суспільство, навіть американське телебачення.
В Україні 15 сезон розпочався 6 лютого 2007 року, на каналі M1. Остання серія сезону була показана 8 березня того ж року. У 2010 році цей сезон транслював канал Кіно (він же 2+2), транслюючи в ефір tvріпи з М1 (звук вони звели під французькі PDTV ріпи). У квітні 2013 року 15 сезон транслює канал Qtv з якісним (порівняно) звуком, не з ріпів.

Тривалість: 1 серія: ~ 21 хв. (цілком серій: 22)
Перелік серій
Сезон 15

15x01 [EABF21] - Хелловін 14 (Treehouse of Horror XIV)
15x02 [EABF18] - Моя мама викрадач автомобілів (My Mother the Carjacker)
15x03 [EABF20] - Президент носила перлини (The President Wore Pearls)
15x04 [EABF22] - Монолог королеви (The Regina Monologues)
15x05 [EABF19] - Товсті і пухнасті (The Fat and the Furriest)
15x06 [FABF01] - Сьогодні я клоун (Today I Am a Clown)
15x07 [FABF02] - Ось вам і п’ятнадцятий сезон (Tis the Fifteenth Season)
15x08 [FABF03] - Мардж проти одиноких, пенсіонерів, бездітних, підлітків та голубих (Marge vs. Singles, Seniors, Childless Couples and Teens, and Gays)
15x09 [FABF04] - Д’оу робот (I, (Annoyed Grunt)-Bot)
15x10 [FABF05] - Промова збожеволілої домогосподарки (Diatribe of a Mad Housewife)
15x11 [FABF06] - Подорож в історію Мардж (Margical History Tour)
15x12 [FABF07] - Мілгаус тут більше не живе (Milhouse Doesn't Live Here Anymore)
15x13 [FABF09] - Розумний і ще розумніший (Smart and Smarter)
15x14 [FABF08] - Зіфф їде на обід (The Ziff Who Came to Dinner)
15x15 [FABF10] - День дармоїдів (Co-Dependent's Day)
15x16 [FABF11] - Втеча з тюрми для неповнолітніх (The Wandering Juvie)
15x17 [FABF12] - Весілля чокнутих (My Big Fat Geek Wedding)
15x18 [FABF14] - Злови їх, якщо зможеш (Catch 'Em If You Can)
15x19 [FABF15] - Просто Сімпсон (Simple Simpson)
15x20 [FABF13] - Ми такими не були (The Way We Weren't)
15x21 [FABF17] - Бартів прапор (Bart-Mangled Banner)
15x22 [FABF18] - Новини з шахрайством (Fraudcast News)

Якість:
Відео:
кодек:
розмір кадру: 960x720
бітрейт: ~ 2500 кб/с

Аудіо # 1:
мова: українська
переклад: професійний дубльований
кодек: 2.0
бітрейт: 192 кб/с

Аудіо # 2:
мова: англійська
переклад: оригінал
кодек: 5.1
бітрейт: 1510 кб/с

Субтитри:
мова: англійська
тип: програмні (м'які)
формат: *.srt
Переклад виконано і озвучено:
Студією "Пілот", на замовлення каналу , трансляція телеканалу .
Інформація про дубляж
Ролі дублювали:
Євген Малуха (Гомер Сімпсон, Мер Квімбі, Завгосп Віллі, Продавець коміксів, Доктор Нік, Ленні Леонард, Професор Фрінк та інші.)
Ганна Левченко (Барт Сімпсон)
Ірина Дорошенко (Мардж Сімпсон, Ліса Сімпсон та інші.)
Юрій Коваленко (Абрахам Сімпсон (дідусь), Нед Фландерс, Барні Ґамбл, Доктор Гібберт, Апу Нахасапімапетілон, Мо Сізлак, Отець Лавджой, Шеф Віґґам, Монтґомері Бернс, Вейлон Смізерс, Клітус, Карл, Кент Брокман, Сеймур Скіннер, Клоун Красті та інші.)
Media-Info
Код:
General
Unique ID                                : 227075358526561925698303198141303370025 (0xAAD51F8E1723DE97A76F357C34BA3129)
Complete name                            : D:\Релізи\Сімпсони (The Simpsons)\Готово\Simpsons 15 (2003-04) Ukr.Eng (720p) [Hurtom]\15x09 [FABF04] - I, (Annoyed Grunt)-Bot [Hurtom].
Format                                   :
Format version                           : Version 4 / Version 2
File size                                : 665 MiB
Duration                                 : 22mn 0s
Overall bit rate                         : 4 224 Kbps
Movie name                               : 15x09 [FABF04] - I, (Annoyed Grunt)-Bot [Hurtom]
Encoded date                             : UTC 2010-02-22 21:41:31
Writing application                      : v5.9.0 ('On The Loose') built on Dec  9 2012 15:37:01
Writing library                          : libebml v1.3.0 + v1.4.0

Video
ID                                       : 1
Format                                   : AVC
Format/Info                              : Advanced Video Codec
Format profile                           : [email protected]
Format settings, CABAC                   : Yes
Format settings, ReFrames                : 5 frames
Codec ID                                 : V_MPEG4/ISO/AVC
Duration                                 : 22mn 0s
Bit rate                                 : 2 521 Kbps
Width                                    : 960 pixels
Height                                   : 720 pixels
Display aspect ratio                     : 4:3
Frame rate mode                          : Constant
Frame rate                               : 23.976 fps
Color space                              : YUV
Chroma subsampling                       : 4:2:0
Bit depth                                : 8 bits
Scan type                                : Progressive
Bits/(Pixel*Frame)                       : 0.152
Stream size                              : 384 MiB (58%)
Title                                    :
Writing library                          : core 129 r2230 1cffe9f
Encoding settings                        : cabac=1 / ref=5 / deblock=1:0:0 / analyse=0x3:0x133 / me=umh / subme=7 / psy=1 / psy_rd=1.00:0.00 / mixed_ref=1 / me_range=16 / chroma_me=1 / trellis=1 / 8x8dct=1 / cqm=0 / deadzone=21,11 / fast_pskip=0 / chroma_qp_offset=-2 / threads=12 / lookahead_threads=2 / sliced_threads=0 / nr=0 / decimate=1 / interlaced=0 / bluray_compat=0 / constrained_intra=0 / bframes=3 / b_pyramid=2 / b_adapt=1 / b_bias=0 / direct=1 / weightb=1 / open_gop=0 / weightp=2 / keyint=250 / keyint_min=23 / scenecut=40 / intra_refresh=0 / rc_lookahead=40 / rc=2pass / mbtree=1 / bitrate=2521 / ratetol=1.0 / qcomp=0.60 / qpmin=0 / qpmax=69 / qpstep=4 / cplxblur=20.0 / qblur=0.5 / ip_ratio=1.40 / aq=1:1.00
Language                                 : English
Default                                  : Yes
Forced                                   : No

Audio #1
ID                                       : 2
Format                                   : AC-3
Format/Info                              : Audio Coding 3
Mode extension                           : CM (complete main)
Format settings, Endianness              : Big
Codec ID                                 : A_AC3
Duration                                 : 22mn 0s
Bit rate mode                            : Constant
Bit rate                                 : 192 Kbps
Channel(s)                               : 2 channels
Channel positions                        : Front: L R
Sampling rate                            : 48.0 KHz
Bit depth                                : 16 bits
Compression mode                         : Lossy
Stream size                              : 30.2 MiB (5%)
Title                                    : DUB (M1)
Language                                 : Ukrainian
Default                                  : Yes
Forced                                   : No

Audio #2
ID                                       : 3
Format                                   :
Format/Info                              : Digital Theater Systems
Mode                                     : 16
Format settings, Endianness              : Big
Codec ID                                 : A_DTS
Duration                                 : 22mn 0s
Bit rate mode                            : Constant
Bit rate                                 : 1 509 Kbps
Channel(s)                               : 6 channels
Channel positions                        : Front: L C R, Side: L R, LFE
Sampling rate                            : 48.0 KHz
Bit depth                                : 24 bits
Compression mode                         : Lossy
Stream size                              : 238 MiB (36%)
Title                                    : Original
Language                                 : English
Default                                  : No
Forced                                   : No

Text
ID                                       : 4
Format                                   : UTF-8
Codec ID                                 : S_TEXT/UTF8
Codec ID/Info                            : UTF-8 Plain Text
Title                                    : English
Language                                 : English
Default                                  : No
Forced                                   : No

Menu
00:00:00.000                             : en:00:00:00.000
00:00:25.859                             : en:00:00:25.859
00:04:14.379                             : en:00:04:14.379
00:05:55.480                             : en:00:05:55.480
00:15:12.286                             : en:00:15:12.286
00:21:10.728                             : en:00:21:10.728

Скріншоти:



Подяки:
Запис з Qtv: jonas93, 4erkov, ZheGal, alexandr2783.
-и з M1: Little.
Автор ріпів: geckos.
Зведення, реліз: 4erkov.
Сімпсони (Сезон 16) / The Simpsons (2004-2005) 720p Ukr/Eng | Sub Eng
Сімпсони (Сезон 16) / The Simpsons (2004-2005) 720p Ukr/Eng | Sub Eng


Жанр: анімаційний ситком, комедія, пародія
Країна: США

Кіностудія / кінокомпанія: Gracie Films, 20th Century Fox Television
Режисер: Метт Грейнінг
Актори/ролі озвучують: Ден Касталанетта (Гомер), Джулі Кавнер (Мардж), Ненсі Картрайт (Барт), Ядлі Сміт (Ліса), Гаррі Ширер (Нед Фландерс і Монтгомері Бернз) та інші.
Сюжет:
Сімпсони (англ. The Simpsons) — найдовший анімаційний серіал в історії американського телебачення: понад 500 епізодів, які, у свою чергу, об'єднані у 25 сезонів, приблизно по 20 серій у кожному. Дебютував 17 грудня 1989 року на телеканалі FOX. Серіал «Сімпсони» — сатирична пародія на життя «пересічного» американця, втілена в сім'ї Сімпсонів. Події відбуваються в уявному місті Спрингфілді (англ. Springfield); шоу висміює чисельні аспекти життя людей, американську культуру, суспільство, навіть американське телебачення.

Тривалість: 1 серія: ~ 21 хв. (цілком серій: 22)
Перелік серій
Сезон 16

16x01 [FABF23] - Хелловін 15 (Treehouse of Horror XV)
16x02 [FABF20] - Війна духовок (All's Fair in Oven War)
16x03 [FABF19] - Сон з ворогом (Sleeping with the Enemy)
16x04 [FABF22] - Вона скористалась цим, щоб стати моєю дівчиною (She Used to Be My Girl)
16x05 [FABF21] - Товстий чоловік і маленький хлопчик (Fat Man and Little Boy)
16x06 [FABF16] - Контрабандисти (Midnight Rx)
16x07 [GABF01] - Пивна мама (Mommie Beerest)
16x08 [GABF02] - Гомер - хореограф (Homer and Ned's Hail Mary Pass)
16x09 [GABF03] - Жартівливий реп (Pranksta Rap)
16x10 [GABF04] - Дещо про шлюби (There's Something About Marrying)
16x11 [GABF05] - В один ясний день я не можу бачити сестру (On a Clear Day I Can't See My Sister)
16x12 [GABF06] - Дитина Сельми (Goo Goo Gai Pan)
16x13 [GABF07] - Мобільний Гомер (Mobile Homer)
16x14 [GABF08] - Сім пивних донощиків (The Seven-Beer Snitch)
16x15 [GABF12] - Футу-драма (Future-Drama)
16x16 [GABF10] - Не бійся покрівельника (Don't Fear the Roofer)
16x17 [GABF11] - Дитина з розбитим серцем (The Heartbroke Kid)
16x18 [GABF13] - Неспокійна зірка (A Star is Torn)
16x19 [GABF14] - Слава богу, кінець світу (Thank God It's Doomsday)
16x20 [GABF15] - Дім вдалині від Гомера (Home Away From Homer)
16x21 [GABF09] - Батько, син і святий гість (The Father, The Son, and The Holy Guest Star)

Якість:
Відео:
кодек:
розмір кадру: 960x720
бітрейт: ~ 2600 кб/с

Аудіо # 1:
мова: українська
переклад: професійний дубльований
кодек: 2.0 (стерео)
бітрейт: 192 кб/с

Аудіо # 2:
мова: англійська
переклад: оригінал
кодек: 5.1
бітрейт: 1510 кб/с

Субтитри:
мова: англійська
тип: програмні (м'які)
формат: *.srt
Переклад виконано і озвучено:
Студією "Пілот", на замовлення каналу , трансляція телеканалу .
Інформація про дубляж
Ролі дублювали:
Євген Малуха (Гомер Сімпсон, Мер Квімбі, Завгосп Віллі, Продавець коміксів, Доктор Нік, Ленні Леонард, Професор Фрінк та інші.)
Ганна Левченко (Барт Сімпсон)
Ірина Дорошенко (Мардж Сімпсон, Ліса Сімпсон та інші.)
Юрій Коваленко (Абрахам Сімпсон (дідусь), Нед Фландерс, Барні Ґамбл, Доктор Гібберт, Апу Нахасапімапетілон, Мо Сізлак, Отець Лавджой, Шеф Віґґам, Монтґомері Бернс, Вейлон Смізерс, Клітус, Карл, Кент Брокман, Сеймур Скіннер, Клоун Красті та інші.)
Media-Info
Код:
General
Unique ID                                : 202443414269144258058430333799859555913 (0x984D2EF0950D173D93EA33D9BD610E49)
Complete name                            : D:\Релізи\Сімпсони (The Simpsons)\Готово\Simpsons. Old seasons (HD 720p) [Hurtom]\Simpsons 16 (2004-05) Ukr.Eng (720p) [Hurtom]\16x12 - Goo Goo Gai Pan [GABF06] [Hurtom].
Format                                   :
Format version                           : Version 4 / Version 2
File size                                : 665 MiB
Duration                                 : 21mn 52s
Overall bit rate                         : 4 248 Kbps
Movie name                               : 16x12 - Goo Goo Gai Pan [GABF06] [Hurtom]
Encoded date                             : UTC 2014-08-03 11:51:21
Writing application                      : v6.4.1 ('Omega Point') built on Sep 16 2013 22:05:10
Writing library                          : libebml v1.3.0 + v1.4.1

Video
ID                                       : 1
Format                                   : AVC
Format/Info                              : Advanced Video Codec
Format profile                           : [email protected]
Format settings, CABAC                   : Yes
Format settings, ReFrames                : 5 frames
Codec ID                                 : V_MPEG4/ISO/AVC
Duration                                 : 21mn 52s
Bit rate                                 : 2 544 Kbps
Width                                    : 960 pixels
Height                                   : 720 pixels
Display aspect ratio                     : 4:3
Frame rate mode                          : Constant
Frame rate                               : 23.976 fps
Color space                              : YUV
Chroma subsampling                       : 4:2:0
Bit depth                                : 8 bits
Scan type                                : Progressive
Bits/(Pixel*Frame)                       : 0.154
Stream size                              : 385 MiB (58%)
Title                                    :
Writing library                          : core 140 r2377 1ca7bb9
Encoding settings                        : cabac=1 / ref=5 / deblock=1:0:0 / analyse=0x3:0x133 / me=umh / subme=7 / psy=1 / psy_rd=1.00:0.00 / mixed_ref=1 / me_range=16 / chroma_me=1 / trellis=1 / 8x8dct=1 / cqm=0 / deadzone=21,11 / fast_pskip=0 / chroma_qp_offset=-2 / threads=12 / lookahead_threads=2 / sliced_threads=0 / nr=0 / decimate=1 / interlaced=0 / bluray_compat=0 / constrained_intra=0 / bframes=3 / b_pyramid=2 / b_adapt=1 / b_bias=0 / direct=1 / weightb=1 / open_gop=0 / weightp=2 / keyint=250 / keyint_min=23 / scenecut=40 / intra_refresh=0 / rc_lookahead=40 / rc=2pass / mbtree=1 / bitrate=2544 / ratetol=1.0 / qcomp=0.60 / qpmin=0 / qpmax=69 / qpstep=4 / cplxblur=20.0 / qblur=0.5 / ip_ratio=1.40 / aq=1:1.00
Language                                 : English
Default                                  : Yes
Forced                                   : No

Audio #1
ID                                       : 2
Format                                   : AC-3
Format/Info                              : Audio Coding 3
Mode extension                           : CM (complete main)
Format settings, Endianness              : Big
Codec ID                                 : A_AC3
Duration                                 : 21mn 52s
Bit rate mode                            : Constant
Bit rate                                 : 192 Kbps
Channel count                            : 2 channels
Channel positions                        : Front: L R
Sampling rate                            : 48.0 KHz
Bit depth                                : 16 bits
Compression mode                         : Lossy
Stream size                              : 30.1 MiB (5%)
Title                                    : DUB
Language                                 : Ukrainian
Default                                  : Yes
Forced                                   : No

Audio #2
ID                                       : 3
Format                                   :
Format/Info                              : Digital Theater Systems
Mode                                     : 16
Format settings, Endianness              : Big
Codec ID                                 : A_DTS
Duration                                 : 21mn 52s
Bit rate mode                            : Constant
Bit rate                                 : 1 509 Kbps
Channel count                            : 6 channels
Channel positions                        : Front: L C R, Side: L R, LFE
Sampling rate                            : 48.0 KHz
Bit depth                                : 24 bits
Compression mode                         : Lossy
Stream size                              : 236 MiB (36%)
Title                                    : Original
Language                                 : English
Default                                  : No
Forced                                   : No

Menu
00:00:00.000                             : en:00:00:00.000
00:00:25.817                             : en:00:00:25.817
00:03:55.026                             : en:00:03:55.026
00:06:25.093                             : en:00:06:25.093
00:16:02.753                             : en:00:16:02.753
00:21:01.135                             : en:00:21:01.135

Скріншоти:



Подяки:
Запис з Qtv: andic.
-и з M1: Little. Зведення, реліз: 4erkov.

Джерело:
Особиста оцінка: 100 - найкращий мультсеріал мого життя!


Срібний реліз (на рейтинг впливає 50% завантаженого)
 Трекер:    Зареєстрований   

Завантажити / скачати мультфільм українською



відео для новачків



 Зареєстрований:   2014-08-26 21:02
 Розмір:   47.8 GB 
 Оцінка мультсеріалу:   9.8/10 (Голосів: 50)
   
bot 
робот


З нами з: 30.09.07
Востаннє: 26.05.05
Повідомлень: 27829

2013-04-21 21:22  
Тему перенесено з Мультсеріали в HD до форуму Анонси релізів від Відео Гуртом


4erkov

4erkov 
Відео Гуртом - запис з ТБ
Відео Гуртом - запис з ТБ


З нами з: 09.10.10
Востаннє: 08.04.21
Повідомлень: 1840

2013-04-21 21:24  
Реліз ~завтра.

Звук якісніший, ніж в інших існуючих релізах. У деяких місцях є невеличкі вставки звуку з твріпів, тому що Qtv іноді вирізали заставки; моменти, де згадувався канал M1 у дубляжі; титри (вставки з твріпів під час дубльованих пісень, чи закадрового голосу під час титрів, в іншому разі - використовував оригінал).

ХОРОБРЕ СЕРЦЕ 
Свій


З нами з: 24.06.11
Востаннє: 10.04.21
Повідомлень: 60

2013-04-21 21:25  
Супер=) ще б інші сезони=))
4erkov 
Відео Гуртом - запис з ТБ
Відео Гуртом - запис з ТБ


З нами з: 09.10.10
Востаннє: 08.04.21
Повідомлень: 1840

2013-04-21 21:27  
ХОРОБРЕ СЕРЦЕ написано:
ще б інші сезони=))

Будуть)

ХОРОБРЕ СЕРЦЕ 
Свій


З нами з: 24.06.11
Востаннє: 10.04.21
Повідомлень: 60

2013-04-21 21:46  
Супер=)))
Zheka081292 
Поважний учасник


З нами з: 14.12.09
Востаннє: 03.04.21
Повідомлень: 214

2013-04-21 23:12  
Просто чудово, дякую!!!!! Happy
musicfan 
Модератор музики


З нами з: 27.01.09
Востаннє: 09.03.21
Повідомлень: 893

2013-04-22 16:49  
Сімпсони (Сезон 14. Сезон 15. Сезон 16) / The Simpsons (2002-2004-2005) 720p Ukr/Eng | Sub Eng
bot 
робот


З нами з: 30.09.07
Востаннє: 26.05.05
Повідомлень: 27829

2013-04-22 18:21  
Тему перенесено з Анонси релізів від Відео Гуртом до форуму Мультсеріали в HD


4erkov

4erkov 
Відео Гуртом - запис з ТБ
Відео Гуртом - запис з ТБ


З нами з: 09.10.10
Востаннє: 08.04.21
Повідомлень: 1840

2013-04-22 18:25  
Додав торрент-файл, приємного перегляду.
Порівняння з твріпом: http://screenshotcomparison.com/comparison/19976/

The Gunslinger 
Свій


З нами з: 08.04.12
Востаннє: 09.04.21
Повідомлень: 103

2013-04-22 18:49  
4erkov
Якість просто супер і це пізнається в порівнянні в ТБ-ріпом.
Скажіть будь ласка до скількох сезонів існує HD?

NeetScrool 
Відео Гуртом - фільмокрай
Відео Гуртом - фільмокрай


З нами з: 10.01.13
Востаннє: 10.04.21
Повідомлень: 3144

2013-04-22 19:03  
50% розміру займає лише звук, чому б не перезжати ДТС у АС3 448?
4erkov 
Відео Гуртом - запис з ТБ
Відео Гуртом - запис з ТБ


З нами з: 09.10.10
Востаннє: 08.04.21
Повідомлень: 1840

2013-04-22 19:29  
The Gunslinger написано:

4erkov
Якість просто супер і це пізнається в порівнянні в ТБ-ріпом.
Скажіть будь ласка до скількох сезонів існує HD?

Blu-Ray: 13,14,15,20
: 21,22,23,24.
Сезони 16-19 транслюють в HD на каналі Prosieben HD.
NeetScrool написано:
50% розміру займає лише звук, чому б не перезжати ДТС у АС3 448?

Можна було б, але оригінальну доріжку я вирішив не чіпати.

-Roman- 
Свій


З нами з: 23.01.09
Востаннє: 24.11.20
Повідомлень: 124

2013-04-25 00:26  
Дякую, remux-ы не плануєте робити ?
4erkov 
Відео Гуртом - запис з ТБ
Відео Гуртом - запис з ТБ


З нами з: 09.10.10
Востаннє: 08.04.21
Повідомлень: 1840

2013-04-25 06:22  
-Roman- написано:
remux-ы не плануєте робити ?

Ні.

d919 
VIP


З нами з: 18.03.11
Востаннє: 05.05.16
Повідомлень: 477

2013-04-26 11:53  
4erkov
а сезони 16-20 найближчим часом в HD будуть?

4erkov 
Відео Гуртом - запис з ТБ
Відео Гуртом - запис з ТБ


З нами з: 09.10.10
Востаннє: 08.04.21
Повідомлень: 1840

2013-04-26 14:15  
d919 написано:

4erkov
а сезони 16-20 найближчим часом в HD будуть?

20 і так є. На рахунок 16-17 краще почекати Blu-Ray, а до 18-20 сезонів звичайні ріпи не сильно поступаються записам з Pro 7 HD.

AlexPunisher 
Частий відвідувач


З нами з: 05.03.10
Востаннє: 20.07.20
Повідомлень: 43

2013-05-05 08:04  
А де всі ???
4erkov 
Відео Гуртом - запис з ТБ
Відео Гуртом - запис з ТБ


З нами з: 09.10.10
Востаннє: 08.04.21
Повідомлень: 1840

2013-05-05 09:33  
AlexPunisher написано:
А де всі ???

Хто "всі"?

AlexPunisher 
Частий відвідувач


З нами з: 05.03.10
Востаннє: 20.07.20
Повідомлень: 43

2013-05-05 10:01  
Просто поставив на кач , а швидкості не було , тепер все добре .
WooDDy 
Новенький


З нами з: 09.11.08
Востаннє: 27.02.21
Повідомлень: 3

2013-06-05 23:41  
Дякую. Якість супер! Чекаємо на інші сезони.
simpsonito1997 
Новенький


З нами з: 08.06.13
Востаннє: 22.01.15
Повідомлень: 4

2013-06-08 07:15  
спасибо Happy. Роздають??
4erkov 
Відео Гуртом - запис з ТБ
Відео Гуртом - запис з ТБ


З нами з: 09.10.10
Востаннє: 08.04.21
Повідомлень: 1840

2013-08-18 15:39  
Торрент-файл оновлено 18.08.2013. Додано 14й сезон.
Якщо ви вже завантажували раніше 15й сезон: створіть папку Simpsons. Old seasons (HD 720p) [Hurtom] і перемістіть в неї Simpsons 15 (2003-04) Ukr.Eng (720p) [Hurtom].

taraskill1 
Відео Гуртом - фільмокрай
Відео Гуртом - фільмокрай


З нами з: 21.01.12
Востаннє: 10.04.21
Повідомлень: 1328

2013-08-18 18:36  
Дуже Вам вдячний. Чи будуть ще якісь сезони в HD?
4erkov 
Відео Гуртом - запис з ТБ
Відео Гуртом - запис з ТБ


З нами з: 09.10.10
Востаннє: 08.04.21
Повідомлень: 1840

2013-08-18 19:50  
taraskill1 написано:
Чи будуть ще якісь сезони в HD?

Так. 13й (з стерео звуком). І 16й, після виходу Blu-Ray (реліз в грудні цього року).
Також скоро будуть додані нові серії 24го сезону (в іншій роздачі).

taraskill1 
Відео Гуртом - фільмокрай
Відео Гуртом - фільмокрай


З нами з: 21.01.12
Востаннє: 10.04.21
Повідомлень: 1328

2013-08-18 21:01  
Хороше діло робите! Ще раз дякую та бажаю Вам наснаги у цій клопіткій праці.
ТОЛЯН 
Поважний учасник


З нами з: 01.07.11
Востаннє: 23.01.21
Повідомлень: 243

2013-08-18 21:04  
4erkov написано:
нові серії 24го сезону (в іншій роздачі)

А що їх показували?

Dark Invader 
Модератор відео


З нами з: 06.01.11
Востаннє: 10.04.21
Повідомлень: 3172

2013-08-18 21:28  
ТОЛЯН
з 19 серпня мають показувати.

4erkov 
Відео Гуртом - запис з ТБ
Відео Гуртом - запис з ТБ


З нами з: 09.10.10
Востаннє: 08.04.21
Повідомлень: 1840

2013-08-19 21:22  
taraskill1 написано:
Хороше діло робите! Ще раз дякую та бажаю Вам наснаги у цій клопіткій праці.

Дякую.
ТОЛЯН написано:
А що їх показували?

У новому сезоні Qtv (з 19.08) мають показати. Сьогодні ще транслюють старі серії.
До речі, трансляція Qtv тепер у стерео (а відповідно і Сімпсони - теж).

nabucko 
Частий відвідувач


З нами з: 29.06.10
Востаннє: 16.08.18
Повідомлень: 39

2013-08-20 18:33  
Дякую!
Ваш часовий пояс: GMT + 2 Години

Нова тема   Відповісти Сторінка:  1, 2  наступна