Мадагаскар 2 / Madagascar: Escape 2 Africa (2008) 720p Ukr/Eng | Sub Ukr/Eng

Нові коментарі

Нова тема   Відповісти
Автор Повідомлення
braveboy 
Відео Гуртом - команда HD
Відео Гуртом - команда HD


З нами з: 15.06.10
Востаннє: 13.08.17
Повідомлень: 949

2013-04-20 23:41  

Мадагаскар 2 / Madagascar: Escape 2 Africa (2008) 720p Ukr/Eng | Sub Ukr/Eng


Мадагаскар 2 / Madagascar: Escape 2 Africa (2008) 720p Ukr/Eng | Sub Ukr/Eng

«Обережно, звірі повертаються!»

Жанр: комедія, пригодницький, сімейний
Країна: США



Кіностудія / кінокомпанія: DreamWorks Animation
Режисер: Том МакГрат, Ерік Дарнелл
Актори: Бен Стіллер, Кріс Рок, Девід Швіммер, Джада Пінкетт Сміт, Саша Барон Коен, Седрік «Розважач», Енді Ріхтер, Берні Мак, Алек Болдуін, Шеррі Шеперд

Сюжет:
Повне небезпек життя на Мадагаскарі не виправдало очікувань тварин, які звикли до комфорту Нью-Йоркського зоопарку, - лева Алекса, зебри Марті, жирафа Мелмана й бегемотихи Глорії - і друзі вирішують утекти з острова. По випадковості, всю компанію заносить в Африку, де Алекс зустрічає свою родину, з якою він був розлучений у дитинстві. Зненацька для себе Алекс розуміє, що після життя в зоопарку в нього набагато менше спільного з родичами, ніж йому хотілося б...



Тривалість: 01:29:24
Якість: 720p
Відео:
кодек:
розмір кадру: 1280 х 720
бітрейт: 5717 кб/с

Аудіо # 1:
мова: українська
переклад: професійний дубльований
кодек: 5.1
бітрейт: 640 кб/с

Аудіо # 2:
мова: англійська
переклад: оригінал
кодек: 5.1
бітрейт: 640 кб/с

Джерело озвучення:


Субтитри:
мова: українська
тип: програмні (м'які)
формат: *.srt

Субтитри:
мова: англійська
тип: програмні (м'які)
формат: *.srt
720p by braveboy
log

[info]: frame I:1193 Avg QP:14.34 size:179882
[info]: frame P:35517 Avg QP:16.45 size: 53474
[info]: frame B:91907 Avg QP:18.72 size: 18681
[info]: consecutive B-frames: 3.8% 3.7% 25.3% 34.4% 14.8% 14.6% 3.5%
[info]: mb I I16..4: 6.5% 67.9% 25.6%
[info]: mb P I16..4: 1.1% 12.3% 2.5% P16..4: 30.3% 16.9% 16.5% 1.5% 0.6% skip:18.4%
[info]: mb B I16..4: 0.1% 1.6% 0.4% B16..8: 27.9% 11.8% 4.6% direct: 6.4% skip:47.1% L0:38.5% L1:41.9% BI:19.6%
[info]: 8x8 transform intra:75.4% inter:48.9%
[info]: coded y,uvDC,uvAC intra: 88.0% 87.2% 69.9% inter: 24.8% 20.0% 11.5%
[info]: i16 v,h,dc,p: 33% 13% 7% 47%
[info]: i8 v,h,dc,ddl,ddr,vr,hd,vl,hu: 11% 12% 8% 8% 12% 12% 12% 11% 14%
[info]: i4 v,h,dc,ddl,ddr,vr,hd,vl,hu: 8% 8% 5% 9% 18% 15% 14% 11% 12%
[info]: i8c dc,h,v,p: 42% 24% 17% 18%
[info]: Weighted P-Frames: Y:5.0% UV:3.8%
[info]: ref P L0: 55.9% 9.1% 14.3% 5.5% 4.2% 3.4% 2.8% 2.2% 1.8% 0.9% 0.0%
[info]: ref B L0: 75.8% 10.0% 5.2% 2.5% 2.6% 1.8% 1.5% 0.6%
[info]: ref B L1: 93.1% 6.9%
[info]: kb/s:5712.89
Info
Format :
Format version : Version 4 / Version 2
File size : 4.37 GiB
Duration : 1h 29mn
Overall bit rate : 6 994 Kbps
Movie name : Madagascar: Escape 2 Africa (2008) 720p by braveboy
Encoded date : UTC 2013-04-19 03:27:22
Writing application : mkvmerge v6.1.0 ('Old Devil') built on Mar 2 2013 14:32:37
Writing library : libebml v1.3.0 + libmatroska v1.4.0

Video
ID : 1
Format : AVC
Format/Info : Advanced Video Codec
Format profile : High@L4.1
Format settings, CABAC : Yes
Format settings, ReFrames : 9 frames
Codec ID : V_MPEG4/ISO/AVC
Duration : 1h 29mn
Bit rate : 5 717 Kbps
Width : 1 280 pixels
Height : 720 pixels
Display aspect ratio : 16:9
Frame rate mode : Constant
Frame rate : 23.976 fps
Color space : YUV
Chroma subsampling : 4:2:0
Bit depth : 8 bits
Scan type : Progressive
Bits/(Pixel*Frame) : 0.259
Stream size : 3.48 GiB (80%)
Title : Madagascar: Escape 2 Africa (2008) 720p by braveboy
Writing library : core 129 r2245 bc13772
Encoding settings : cabac=1 / ref=9 / deblock=1:-3:-3 / analyse=0x3:0x133 / me=umh / subme=10 / psy=1 / psy_rd=1.00:0.00 / mixed_ref=1 / me_range=32 / chroma_me=1 / trellis=2 / 8x8dct=1 / cqm=0 / deadzone=21,11 / fast_pskip=0 / chroma_qp_offset=-2 / threads=6 / lookahead_threads=1 / sliced_threads=0 / nr=0 / decimate=0 / interlaced=0 / bluray_compat=0 / constrained_intra=0 / bframes=6 / b_pyramid=2 / b_adapt=2 / b_bias=0 / direct=1 / weightb=1 / open_gop=0 / weightp=2 / keyint=240 / keyint_min=24 / scenecut=40 / intra_refresh=0 / rc=2pass / mbtree=0 / bitrate=5717 / ratetol=1.0 / qcomp=0.60 / qpmin=10 / qpmax=51 / qpstep=4 / cplxblur=20.0 / qblur=0.5 / ip_ratio=1.40 / pb_ratio=1.30 / aq=1:1.00
Default : Yes
Forced : No

Audio #1
ID : 2
Format : AC-3
Format/Info : Audio Coding 3
Mode extension : CM (complete main)
Format settings, Endianness : Big
Codec ID : A_AC3
Duration : 1h 29mn
Bit rate mode : Constant
Bit rate : 640 Kbps
Channel(s) : 6 channels
Channel positions : Front: L C R, Side: L R, LFE
Sampling rate : 48.0 KHz
Bit depth : 16 bits
Compression mode : Lossy
Stream size : 409 MiB (9%)
Title : 5.1 @ 640 kbps [Blu-ray CEE]
Language : Ukrainian
Default : Yes
Forced : No

Audio #2
ID : 3
Format : AC-3
Format/Info : Audio Coding 3
Mode extension : CM (complete main)
Format settings, Endianness : Big
Codec ID : A_AC3
Duration : 1h 29mn
Bit rate mode : Constant
Bit rate : 640 Kbps
Channel(s) : 6 channels
Channel positions : Front: L C R, Side: L R, LFE
Sampling rate : 48.0 KHz
Bit depth : 16 bits
Compression mode : Lossy
Stream size : 409 MiB (9%)
Title : 5.1 @ 640 kbps
Language : English
Default : No
Forced : No

Text #1
ID : 4
Format : UTF-8
Codec ID : S_TEXT/UTF8
Codec ID/Info : UTF-8 Plain Text
Title : Full
Language : Ukrainian
Default : No
Forced : No

Text #2
ID : 5
Format : UTF-8
Codec ID : S_TEXT/UTF8
Codec ID/Info : UTF-8 Plain Text
Title : Full
Language : English
Default : No
Forced : No

Menu
00:00:00.000 : en:00:00:00.000
00:04:15.881 : en:00:04:15.881
00:06:46.615 : en:00:06:46.615
00:09:25.774 : en:00:09:25.774
00:15:51.951 : en:00:15:51.951
00:17:34.762 : en:00:17:34.762
00:20:26.934 : en:00:20:26.934
00:23:57.353 : en:00:23:57.353
00:28:03.557 : en:00:28:03.557
00:30:58.899 : en:00:30:58.899
00:33:52.906 : en:00:33:52.906
00:35:19.909 : en:00:35:19.909
00:38:15.418 : en:00:38:15.418
00:42:59.911 : en:00:42:59.911
00:45:35.942 : en:00:45:35.942
00:49:22.918 : en:00:49:22.918
00:52:17.259 : en:00:52:17.259
00:55:17.773 : en:00:55:17.773
00:57:59.810 : en:00:57:59.810
01:03:28.638 : en:01:03:28.638
01:06:33.948 : en:01:06:33.948
01:15:17.888 : en:01:15:17.888
01:19:48.075 : en:01:19:48.075
Скріншоти
Особиста оцінка: 10 - без зайвих вагань рекомендую всім!


 Трекер:    Зареєстрований   

Завантажити / скачати мультфільм українською



відео для новачків



 Зареєстрований:   2013-04-20 23:46
 Розмір:   4.37 GB 
 Оцінка мультфільму:   9.8/10 (Голосів: 16)
   
braveboy 
Відео Гуртом - команда HD
Відео Гуртом - команда HD


З нами з: 15.06.10
Востаннє: 13.08.17
Повідомлень: 949

2013-04-20 23:52  
Ваш часовий пояс: GMT + 2 Години

Нова тема   Відповісти