Знахар: світанок демонів / Curandero: Dawn of the Demon (2005) -AVC Esp/Eng | Sub Ukr

Нові коментарі

Нова тема   Відповісти
Автор Повідомлення
spomidor 
Новенький


З нами з: 16.11.08
Востаннє: 26.11.20
Повідомлень: 24

2013-04-06 21:54  
Знахар: світанок демонів / Curandero: Dawn of the Demon (2005) -AVC Esp/Eng | Sub Ukr

Знахар: світанок демонів / Curandero: Dawn of the Demon (2005) -AVC Esp/Eng | Sub Ukr


Жанр: жахи, містика, детектив
Країна: США, Мексика



Кіностудія / кінокомпанія: Rodriguez International Pictures, Dimension Films
Режисер: Eduardo Rodriguez (Едуардо Родрігес)
Автор сценарію: Robert Rodriguez (Роберт Родрігес) (Planet Terror, Machete)
Актори: Carlos Gallardo (Карлос Галлардо) у ролі Дона Карлоса, Gizeht Galatea (Гізет Галатея) у ролі Магдалени, Gabriel Pingarron (Габріель Пінгаррон) у ролі Кастанеди...

Сюжет:
(www.imdb.com): Подорож людини в надра чорної магії в Мехіко.

(aidyreviews.net): Головний герой Карлос (Carlos Gallardo) - курандеро (знахар), що практикує магію в області очищення людей або місць від проклять, приїздить до поліцейського управління в Мехіко, з метою очищення відділку від нанга - злого тотема у вигляді різних закрвавлених частин людського тіла. Дія фільму від бувається в Мексиці і тому тісно пов’язана з місцевими культурними традиціями і фольклором.

Фільм був випущений в 2005 році в обмежений прокат / на DVD вийшов в 2013 році.



Тривалість: 01:35:32
Якість: -AVC
Відео:
кодек:
розмір кадру: 720x466
бітрейт: 1222 Кбіт/сек

Аудіо # 1:
мова: іспанська
переклад: оригінал
кодек: 2.0
бітрейт: 159 кб/с

Аудіо # 2:
мова: англійська
переклад: оригінал
кодек: 2.0
бітрейт: 159 кб/с

Субтитри:
мова: українська
тип: програмні (м'які)
формат: *.srt
Info:
Код:

Video
ID                          : 1
Format                      : AVC
Format/Info                 : Advanced Video Codec
Format profile              : [email protected]
Format settings             : CABAC / 4 Ref Frames
Format settings, CABAC      : Yes
Format settings, ReFrames   : 4 frames
Codec ID                    : V_MPEG4/ISO/AVC
Duration                    : 1 h 35 min
Bit rate                    : 1 222 kb/s
Width                       : 720 pixels
Height                      : 466 pixels
Display aspect ratio        : 1.85:1
Original display aspect rat : 1.85:1
Frame rate mode             : Variable
Frame rate                  : 24.000 FPS
Color space                 : YUV
Chroma subsampling          : 4:2:0
Bit depth                   : 8 bits
Scan type                   : Progressive
Bits/(Pixel*Frame)          : 0.152
Stream size                 : 835 MiB (79%)
Writing library             : core 120
Encoding settings           : cabac=1 / ref=1 / deblock=1:0:0 / analyse=0x1:0x111 / me=hex / subme=2 / psy=1 / psy_rd=1.00:0.00 / mixed_ref=0 / me_range=16 / chroma_me=1 / trellis=0 / 8x8dct=0 / cqm=0 / deadzone=21,11 / fast_pskip=1 / chroma_qp_offset=0 / threads=3 / sliced_threads=0 / nr=0 / decimate=1 / interlaced=0 / bluray_compat=0 / constrained_intra=0 / bframes=3 / b_pyramid=2 / b_adapt=1 / b_bias=0 / direct=1 / weightb=1 / open_gop=0 / weightp=1 / keyint=240 / keyint_min=24 / scenecut=40 / intra_refresh=0 / rc_lookahead=10 / rc=crf / mbtree=1 / crf=20.0 / qcomp=0.60 / qpmin=3 / qpmax=69 / qpstep=4 / ip_ratio=1.40 / aq=1:1.00
Language                    : English
Default                     : Yes
Forced                      : No
Color range                 : Limited
Color primaries             : BT.601 NTSC
Transfer characteristics    : BT.709
Matrix coefficients         : BT.601

Audio #1
ID                          : 2
Format                      : LC
Format/Info                 : Advanced Audio Codec Low Complexity
Codec ID                    : A_AAC-2
Duration                    : 1 h 35 min
Bit rate                    : 159 kb/s
Channel(s)                  : 2 channels
Channel layout              : L R
Sampling rate               : 48.0 kHz
Frame rate                  : 46.875 FPS (1024 SPF)
Compression mode            : Lossy
Stream size                 : 109 MiB (10%)
Language                    : Spanish
Default                     : Yes
Forced                      : No

Audio #2
ID                          : 3
Format                      : LC
Format/Info                 : Advanced Audio Codec Low Complexity
Codec ID                    : A_AAC-2
Duration                    : 1 h 35 min
Bit rate                    : 159 kb/s
Channel(s)                  : 2 channels
Channel layout              : L R
Sampling rate               : 48.0 kHz
Frame rate                  : 46.875 FPS (1024 SPF)
Compression mode            : Lossy
Stream size                 : 109 MiB (10%)
Language                    : English
Default                     : No
Forced                      : No

Text
ID                          : 4
Format                      : UTF-8
Codec ID                    : S_TEXT/UTF8
Codec ID/Info               : UTF-8 Plain Text
Duration                    : 1 h 30 min
Bit rate                    : 64 b/s
Count of elements           : 805
Stream size                 : 42.8 KiB (0%)
Title                       : Українська
Language                    : Ukrainian
Default                     : Yes
Forced                      : No

Menu
00:00:00.000                : en:Chapter 1
00:03:12.214                : en:Chapter 2
00:09:59.204                : en:Chapter 3
00:17:36.578                : en:Chapter 4
00:20:41.296                : en:Chapter 5
00:31:52.016                : en:Chapter 6
00:36:22.486                : en:Chapter 7
00:41:57.737                : en:Chapter 8
00:49:49.042                : en:Chapter 9
00:58:36.986                : en:Chapter 10
01:09:32.023                : en:Chapter 11
01:13:51.699                : en:Chapter 12
01:18:37.685                : en:Chapter 13
01:23:07.204                : en:Chapter 14
01:31:54.731                : en:Chapter 15
01:35:30.714                : en:Chapter 16
Скріншоти








Джерело: Оригінальний ріп: SS5WiKiNG (cinemageddon.net) / Укр. субтитри: [spomidor] - власний переклад з англ. (місцями з ісп.))
Особиста оцінка: 8 - мені сподобалося


Золотий реліз (завантажене не впливає на рейтинг)
 Трекер:    Зареєстрований   

Завантажити / скачати фільм українською



відео для новачків



 Зареєстрований:   2013-04-06 21:54
 Розмір:   1.03 GB 
 Оцінка фільму:   10/10 (Голосів: 2)
   
YaWrangler 
Поважний учасник


З нами з: 29.07.12
Востаннє: 26.06.20
Повідомлень: 248

2013-04-06 22:19  
1)
Цитата:
кодек: ACC

Можливо ?? (Advanced Audio Codec)

2) Допишіть кількість каналів аудіо

3) І зробіть хоча б 1 скріншот з субтитрами!

BOOGud 
VIP


З нами з: 06.03.12
Востаннє: 31.10.20
Повідомлень: 905

2013-04-06 22:55  
о дякую)

і якщо ви брали з цьої роздачі: Curandero: Dawn Of The Demon [Mexico] [2005//]

то в назву варто дописати що це AVC
типу:
spomidor написано:
-AVC


Додано через 19 хвилин 19 секунд:

і це не бітрейт, а фрейми,
spomidor написано:
бітрейт: 23.976 кб/с


бітрейт там має бути десь 1500-2000

spomidor 
Новенький


З нами з: 16.11.08
Востаннє: 26.11.20
Повідомлень: 24

2013-04-06 23:07  
Наче все повиправляв?
Підкажіть як дізнатися той бітрейт - ось, що маю по відео
Video
ID : 1
Format : AVC
Format/Info : Advanced Video Codec
Format profile : [email protected]
Format settings, CABAC : Yes
Format settings, ReFrames : 4 frames
Codec ID : V_MPEG4/ISO/AVC
Duration : 1h 35mn
Width : 720 pixels
Height : 466 pixels
Display aspect ratio : 1.85:1
Original display aspect ratio : 1.85:1
Frame rate mode : Constant
Frame rate : 29.970 fps
Color space : YUV
Chroma subsampling : 4:2:0
Bit depth : 8 bits
Scan type : Progressive
Writing library : core 120
Encoding settings : cabac=1 / ref=1 / deblock=1:0:0 / analyse=0x1:0x111 / me=hex / subme=2 / psy=1 / psy_rd=1.00:0.00 / mixed_ref=0 / me_range=16 / chroma_me=1 / trellis=0 / 8x8dct=0 / cqm=0 / deadzone=21,11 / fast_pskip=1 / chroma_qp_offset=0 / threads=3 / sliced_threads=0 / nr=0 / decimate=1 / interlaced=0 / bluray_compat=0 / constrained_intra=0 / bframes=3 / b_pyramid=2 / b_adapt=1 / b_bias=0 / direct=1 / weightb=1 / open_gop=0 / weightp=1 / keyint=240 / keyint_min=24 / scenecut=40 / intra_refresh=0 / rc_lookahead=10 / rc=crf / mbtree=1 / crf=20.0 / qcomp=0.60 / qpmin=3 / qpmax=69 / qpstep=4 / ip_ratio=1.40 / aq=1:1.00
Language : English
Default : Yes
Forced : No
Color primaries : BT.601 NTSC
Transfer characteristics : BT.709
Matrix coefficients : BT.601

BOOGud 
VIP


З нами з: 06.03.12
Востаннє: 31.10.20
Повідомлень: 905

2013-04-06 23:17  
spomidor написано:
Наче все повиправляв?

іще вкажіть що саби ваші, і ви перекладади з англійської, за це мають золото дати,

spomidor написано:
Підкажіть як дізнатися той бітрейт - ось, що маю по відео

та дідько його знає, я глунв тут нема, глянув на сінемагеддоні теж нема,
а я з авц не працюю, так що допомогти нажаль не можу,
хоча наскільки я знаю медіаінфо у любому випадку мав бітрейт видати

YaWrangler 
Поважний учасник


З нами з: 29.07.12
Востаннє: 26.06.20
Повідомлень: 248

2013-04-06 23:28  
BOOGud
Цитата:
хоча наскільки я знаю медіаінфо у любому випадку мав бітрейт видати

Так і є... Має видавати!!

spomidor 
Новенький


З нами з: 16.11.08
Востаннє: 26.11.20
Повідомлень: 24

2013-04-07 09:57  
YaWrangler написано:
наскільки я знаю медіаінфо у любому випадку мав бітрейт видати

дякую за підказку )
(єдине, не зовсім зрозуміла важливість цієї інфи)

BOOGud 
VIP


З нами з: 06.03.12
Востаннє: 31.10.20
Повідомлень: 905

2013-04-07 13:10  


spomidor написано:
Robert Rodriguez (Роберт Родрігес)


а я спочатку й не помітив,
чекаю золота й забираю)

BOOGud 
VIP


З нами з: 06.03.12
Востаннє: 31.10.20
Повідомлень: 905

2013-04-08 21:21  
пан який перевіряв! зверніть будь ласка увагу на це:

spomidor написано:
власний переклад з англ. (місцями з ісп.))


отже - золото!

BOOGud 
VIP


З нами з: 06.03.12
Востаннє: 31.10.20
Повідомлень: 905

2013-04-13 18:55  
куди тут петицію писати щоб бляха виконали умови правил і надали клятий золотий чи срібний статтус???????????

я бляха розумію що тут для всіх різні правила і ви самі творите що хочете і самі ж їх не дотримуєтесь але я бляха вже тиждень прошу надати клятий статус, чи вам хабара тре дати чи як????
аааааааааа

spomidor 
Новенький


З нами з: 16.11.08
Востаннє: 26.11.20
Повідомлень: 24

2013-04-14 17:57  
BOOGud написано:
куди тут петицію писати щоб бляха виконали умови правил і надали клятий золотий чи срібний статтус?


Оскількі кіно не озвучено, а субтитровано, воно не привернуло до себе уваги, якщо є бажання -напишіть в лічку (чи як тут це слід зробити), я вам викладу на файлообмінник якийсь.

Ваш часовий пояс: GMT + 2 Години

Нова тема   Відповісти