DOK | дискографія [3 альбоми] (2009-2013) [] Rock / Jazz-Rock

Нові коментарі

Нова тема   Відповісти
Останній раз роздавалося vladloz (2018-11-21)
Автор Повідомлення
muhomor 
VIP


З нами з: 04.12.11
Востаннє: 03.01.21
Повідомлень: 297

2013-04-05 14:06  
DOK | дискографія [3 альбоми] (2009-2013) [] Rock / Jazz-Rock

DOK | дискографія [3 альбоми] (2009-2013) [] Rock / Jazz-Rock


Стиль: Rock / Jazz-Rock / Instrumental
Країна, місто: Україна, Київ-Донецьк
Сайти: myspace
Видавець: усі три альбоми гурт видав за свій кошт
Виконавці:
Станіслав Іващенко - ударні
Євген Кравцов - бас-гітара
Станіслав Кравченко - sax-synth (перші два альбоми)
Артем Васильченко - тенор/сопрано саксофони (третій альбом)
Максим Замай - клавіші (третій альбом)
Анна Конопльова - скрипки (третій альбом)
Анастасія Таранець - віолончель (третій альбом)
Альбоми:
    2009. «DOK»


    DOK | дискографія [3 альбоми] (2009-2013) [] Rock / Jazz-Rock

    01. In
    02. I Go
    03. Ushlo...
    04. Murmansk
    05. Zhaba
    06. Bolit
    07. Ia Ix S'el
    08. Kora
    09. Zanovo
    10. 10
    Audiochecker

    AUDIOCHECKER v2.0 beta (build 457) - by Dester - [email protected]
    ~~~~~~~~~~~~~~~~~~~~~~~~~~~~~~~~~~

    Started at: пятница, 05. 04. 2013. - 14:29.01
    10 files found

    01 -===- D:\hurtom.com\DOK. дискографія [3 альбоми] (2009-2013) []\2009. DOK - «DOK»\01 DOK In.
    Extracted successfully
    Conclusion: this track is CDDA with probability 100%
    Tempfile successfully deleted.

    02 -===- D:\hurtom.com\DOK. дискографія [3 альбоми] (2009-2013) []\2009. DOK - «DOK»\02 DOK I Go.
    Extracted successfully
    Conclusion: this track is CDDA with probability 100%
    Tempfile successfully deleted.

    03 -===- D:\hurtom.com\DOK. дискографія [3 альбоми] (2009-2013) []\2009. DOK - «DOK»\03 DOK Ushlo.
    Extracted successfully
    Conclusion: this track is CDDA with probability 100%
    Tempfile successfully deleted.

    04 -===- D:\hurtom.com\DOK. дискографія [3 альбоми] (2009-2013) []\2009. DOK - «DOK»\04 DOK Murmansk.
    Extracted successfully
    Conclusion: this track is CDDA with probability 100%
    Tempfile successfully deleted.

    05 -===- D:\hurtom.com\DOK. дискографія [3 альбоми] (2009-2013) []\2009. DOK - «DOK»\05 DOK Zhaba.
    Extracted successfully
    Conclusion: this track is CDDA with probability 100%
    Tempfile successfully deleted.

    06 -===- D:\hurtom.com\DOK. дискографія [3 альбоми] (2009-2013) []\2009. DOK - «DOK»\06 DOK Bolit.
    Extracted successfully
    Conclusion: this track is CDDA with probability 100%
    Tempfile successfully deleted.

    07 -===- D:\hurtom.com\DOK. дискографія [3 альбоми] (2009-2013) []\2009. DOK - «DOK»\07 DOK Ia Ix S'el.
    Extracted successfully
    Conclusion: this track is CDDA with probability 100%
    Tempfile successfully deleted.

    08 -===- D:\hurtom.com\DOK. дискографія [3 альбоми] (2009-2013) []\2009. DOK - «DOK»\08 DOK Kora.
    Extracted successfully
    Conclusion: this track is CDDA with probability 100%
    Tempfile successfully deleted.

    09 -===- D:\hurtom.com\DOK. дискографія [3 альбоми] (2009-2013) []\2009. DOK - «DOK»\09 DOK Zanovo.
    Extracted successfully
    Conclusion: this track is CDDA with probability 100%
    Tempfile successfully deleted.

    10 -===- D:\hurtom.com\DOK. дискографія [3 альбоми] (2009-2013) []\2009. DOK - «DOK»\10 DOK 10.
    Extracted successfully
    Conclusion: this track is CDDA with probability 100%
    Tempfile successfully deleted.

    Finished at: пятница, 05. 04. 2013. - 14:32.27 (operation time: 0:03.25)
    Log

    Exact Audio Copy V1.0 beta 3 from 29. August 2011

    Отчёт EAC об извлечении, выполненном 5. апреля 2013, 13:07

    DOK / DOK

    Дисковод: ASUS DRW-2014S1T Adapter: 2 ID: 8

    Режим чтения : Достоверность
    Использование точного потока : Да
    Отключение кэша аудио : Да
    Использование указателей C2 : Нет

    Коррекция смещения при чтении : 6
    Способность читать области Lead-in и Lead-out : Нет
    Заполнение пропущенных сэмплов тишиной : Да
    Удаление блоков с тишиной в начале и конце : Нет
    При вычислениях CRC использовались нулевые сэмплы : Да
    Интерфейс : Встроенный Win32-интерфейс для Win NT/2000
    Обработка зазоров : Добавлено к предыдущему треку

    Выходной формат : Пользовательский кодировщик
    Выбранный битрейт : 128 kBit/s
    Качество : Высокий
    Добавление ID3-тега : Нет
    Утилита сжатия : C:\Program Files\Exact Audio Copy\\.exe
    Дополнительные параметры : -V -8 -T "Genre=%genre%" -T "Artist=%artist%" -T "Title=%title%" -T "Album=%albumtitle%" -T "Date=%year%" -T "Tracknumber=%tracknr%" -T "Comment=%comment%" %source%

    TOC извлечённого CD

    Трек | Старт | Длительность | Начальный сектор | Конечный сектор
    ---------------------------------------------------------------------
    1 | 0:00.00 | 3:09.02 | 0 | 14176
    2 | 3:09.02 | 2:50.09 | 14177 | 26935
    3 | 5:59.11 | 4:06.19 | 26936 | 45404
    4 | 10:05.30 | 3:18.30 | 45405 | 60284
    5 | 13:23.60 | 2:28.05 | 60285 | 71389
    6 | 15:51.65 | 4:41.28 | 71390 | 92492
    7 | 20:33.18 | 2:44.47 | 92493 | 104839
    8 | 23:17.65 | 2:54.47 | 104840 | 117936
    9 | 26:12.37 | 3:36.33 | 117937 | 134169
    10 | 29:48.70 | 2:04.70 | 134170 | 143539

    Трек 1

    Имя файла D:\Documents and Settings\user\Рабочий стол\«»—0–\01 DOK In.wav

    Длина предзазора 0:00:02.00

    Пиковый уровень 99.9 %
    Скорость извлечения 4.6 X
    Качество трека 100.0 %
    CRC теста 6E7B05F5
    CRC копии 6E7B05F5
    Копирование... OK

    Трек 2

    Имя файла D:\Documents and Settings\user\Рабочий стол\«»—0–\02 DOK I Go.wav

    Пиковый уровень 99.9 %
    Скорость извлечения 4.8 X
    Качество трека 100.0 %
    CRC теста 0E15EFF9
    CRC копии 0E15EFF9
    Копирование... OK

    Трек 3

    Имя файла D:\Documents and Settings\user\Рабочий стол\«»—0–\03 DOK Ushlo.wav

    Пиковый уровень 99.9 %
    Скорость извлечения 5.4 X
    Качество трека 100.0 %
    CRC теста BB11059B
    CRC копии BB11059B
    Копирование... OK

    Трек 4

    Имя файла D:\Documents and Settings\user\Рабочий стол\«»—0–\04 DOK Murmansk.wav

    Пиковый уровень 99.9 %
    Скорость извлечения 5.6 X
    Качество трека 100.0 %
    CRC теста 6C8695CB
    CRC копии 6C8695CB
    Копирование... OK

    Трек 5

    Имя файла D:\Documents and Settings\user\Рабочий стол\«»—0–\05 DOK Zhaba.wav

    Пиковый уровень 100.0 %
    Скорость извлечения 4.6 X
    Качество трека 99.9 %
    CRC теста BF3059E5
    CRC копии BF3059E5
    Копирование... OK

    Трек 6

    Имя файла D:\Documents and Settings\user\Рабочий стол\«»—0–\06 DOK Bolit.wav

    Длина предзазора 0:00:00.01

    Пиковый уровень 99.9 %
    Скорость извлечения 6.4 X
    Качество трека 100.0 %
    CRC теста 109ACBB2
    CRC копии 109ACBB2
    Копирование... OK

    Трек 7

    Имя файла D:\Documents and Settings\user\Рабочий стол\«»—0–\07 DOK Ia Ix S'el.wav

    Пиковый уровень 99.9 %
    Скорость извлечения 6.3 X
    Качество трека 100.0 %
    CRC теста 4B082B33
    CRC копии 4B082B33
    Копирование... OK

    Трек 8

    Имя файла D:\Documents and Settings\user\Рабочий стол\«»—0–\08 DOK Kora.wav

    Пиковый уровень 99.9 %
    Скорость извлечения 5.5 X
    Качество трека 99.9 %
    CRC теста 22A1B162
    CRC копии 22A1B162
    Копирование... OK

    Трек 9

    Имя файла D:\Documents and Settings\user\Рабочий стол\«»—0–\09 DOK Zanovo.wav

    Пиковый уровень 99.9 %
    Скорость извлечения 6.0 X
    Качество трека 99.9 %
    CRC теста 08AF5041
    CRC копии 08AF5041
    Копирование... OK

    Трек 10

    Имя файла D:\Documents and Settings\user\Рабочий стол\«»—0–\10 DOK 10.wav

    Пиковый уровень 99.9 %
    Скорость извлечения 6.4 X
    Качество трека 100.0 %
    CRC теста E17AC5DB
    CRC копии E17AC5DB
    Копирование... OK

    Ошибок не произошло

    Конец отчёта

    ==== Контрольная сумма отчёта 47DA99212B21FACCEDECEB3E10F7BCFC5DCCEBB43CFC6EAF9AB4A7142F9F7CEA ====
    Тривалість: 00:31:51
    2011. «DVA»


    DOK | дискографія [3 альбоми] (2009-2013) [] Rock / Jazz-Rock

    01. Exit
    02. Red
    03. Charles
    04. Tse Tse
    05. Nerazluchnik
    06. Pinkod
    07. Atoll
    08. Ozon
    09. Palax
    10. Alkoula
    11. Segodnia & Vchera
    12. Nasekomoe
    13. Kora (bonus track)
    14. Murmansk (bonus track)
    15. Bolit (bonus track)
    Audiochecker

    AUDIOCHECKER v2.0 beta (build 457) - by Dester - [email protected]
    ~~~~~~~~~~~~~~~~~~~~~~~~~~~~~~~~~~

    Started at: пятница, 05. 04. 2013. - 14:35.24
    15 files found

    01 -===- D:\hurtom.com\DOK. дискографія [3 альбоми] (2009-2013) []\2011. DOK - «DVA»\01 DOK Exit.
    Extracted successfully
    Conclusion: this track is CDDA with probability 99%
    Tempfile successfully deleted.

    02 -===- D:\hurtom.com\DOK. дискографія [3 альбоми] (2009-2013) []\2011. DOK - «DVA»\02 DOK Red.
    Extracted successfully
    Conclusion: this track is CDDA with probability 100%
    Tempfile successfully deleted.

    03 -===- D:\hurtom.com\DOK. дискографія [3 альбоми] (2009-2013) []\2011. DOK - «DVA»\03 DOK Charles.
    Extracted successfully
    Conclusion: this track is CDDA with probability 100%
    Tempfile successfully deleted.

    04 -===- D:\hurtom.com\DOK. дискографія [3 альбоми] (2009-2013) []\2011. DOK - «DVA»\04 DOK Tse Tse.
    Extracted successfully
    Conclusion: this track is CDDA with probability 100%
    Tempfile successfully deleted.

    05 -===- D:\hurtom.com\DOK. дискографія [3 альбоми] (2009-2013) []\2011. DOK - «DVA»\05 DOK Nerazluchnik.
    Extracted successfully
    Conclusion: this track is CDDA with probability 100%
    Tempfile successfully deleted.

    06 -===- D:\hurtom.com\DOK. дискографія [3 альбоми] (2009-2013) []\2011. DOK - «DVA»\06 DOK Pinkod.
    Extracted successfully
    Conclusion: this track is CDDA with probability 99%
    Tempfile successfully deleted.

    07 -===- D:\hurtom.com\DOK. дискографія [3 альбоми] (2009-2013) []\2011. DOK - «DVA»\07 DOK Atoll.
    Extracted successfully
    Conclusion: this track is CDDA with probability 100%
    Tempfile successfully deleted.

    08 -===- D:\hurtom.com\DOK. дискографія [3 альбоми] (2009-2013) []\2011. DOK - «DVA»\08 DOK Ozon.
    Extracted successfully
    Conclusion: this track is CDDA with probability 100%
    Tempfile successfully deleted.

    09 -===- D:\hurtom.com\DOK. дискографія [3 альбоми] (2009-2013) []\2011. DOK - «DVA»\09 DOK Palax.
    Extracted successfully
    Conclusion: this track is CDDA with probability 100%
    Tempfile successfully deleted.

    10 -===- D:\hurtom.com\DOK. дискографія [3 альбоми] (2009-2013) []\2011. DOK - «DVA»\10 DOK Alkoula.
    Extracted successfully
    Conclusion: this track is CDDA with probability 100%
    Tempfile successfully deleted.

    11 -===- D:\hurtom.com\DOK. дискографія [3 альбоми] (2009-2013) []\2011. DOK - «DVA»\11 DOK Segodnia And Vchera.
    Extracted successfully
    Conclusion: this track is CDDA with probability 100%
    Tempfile successfully deleted.

    12 -===- D:\hurtom.com\DOK. дискографія [3 альбоми] (2009-2013) []\2011. DOK - «DVA»\12 DOK Nasekomoe.
    Extracted successfully
    Conclusion: this track is CDDA with probability 100%
    Tempfile successfully deleted.

    13 -===- D:\hurtom.com\DOK. дискографія [3 альбоми] (2009-2013) []\2011. DOK - «DVA»\13 DOK Kora (bonus track).
    Extracted successfully
    Conclusion: this track is CDDA with probability 100%
    Tempfile successfully deleted.

    14 -===- D:\hurtom.com\DOK. дискографія [3 альбоми] (2009-2013) []\2011. DOK - «DVA»\14 DOK Murmansk (bonus track).
    Extracted successfully
    Conclusion: this track is CDDA with probability 100%
    Tempfile successfully deleted.

    15 -===- D:\hurtom.com\DOK. дискографія [3 альбоми] (2009-2013) []\2011. DOK - «DVA»\15 DOK Bolit (bonus track).
    Extracted successfully
    Conclusion: this track is CDDA with probability 99%
    Tempfile successfully deleted.

    Finished at: пятница, 05. 04. 2013. - 14:41.20 (operation time: 0:05.56)
    Log

    Exact Audio Copy V1.0 beta 3 from 29. August 2011

    Отчёт EAC об извлечении, выполненном 30. марта 2013, 8:38

    DOK / DVA

    Дисковод: ASUS DRW-2014S1T Adapter: 2 ID: 8

    Режим чтения : Достоверность
    Использование точного потока : Да
    Отключение кэша аудио : Да
    Использование указателей C2 : Нет

    Коррекция смещения при чтении : 6
    Способность читать области Lead-in и Lead-out : Нет
    Заполнение пропущенных сэмплов тишиной : Да
    Удаление блоков с тишиной в начале и конце : Нет
    При вычислениях CRC использовались нулевые сэмплы : Да
    Интерфейс : Встроенный Win32-интерфейс для Win NT/2000
    Обработка зазоров : Добавлено к предыдущему треку

    Выходной формат : Пользовательский кодировщик
    Выбранный битрейт : 128 kBit/s
    Качество : Высокий
    Добавление ID3-тега : Нет
    Утилита сжатия : C:\Program Files\Exact Audio Copy\\.exe
    Дополнительные параметры : -V -8 -T "Genre=%genre%" -T "Artist=%artist%" -T "Title=%title%" -T "Album=%albumtitle%" -T "Date=%year%" -T "Tracknumber=%tracknr%" -T "Comment=%comment%" %source%

    TOC извлечённого CD

    Трек | Старт | Длительность | Начальный сектор | Конечный сектор
    ---------------------------------------------------------------------
    1 | 0:00.00 | 4:22.38 | 0 | 19687
    2 | 4:22.38 | 2:49.65 | 19688 | 32427
    3 | 7:12.28 | 2:42.43 | 32428 | 44620
    4 | 9:54.71 | 3:03.14 | 44621 | 58359
    5 | 12:58.10 | 3:50.48 | 58360 | 75657
    6 | 16:48.58 | 2:11.53 | 75658 | 85535
    7 | 19:00.36 | 3:11.52 | 85536 | 99912
    8 | 22:12.13 | 3:35.29 | 99913 | 116066
    9 | 25:47.42 | 3:09.69 | 116067 | 130310
    10 | 28:57.36 | 3:11.65 | 130311 | 144700
    11 | 32:09.26 | 3:11.35 | 144701 | 159060
    12 | 35:20.61 | 3:01.17 | 159061 | 172652
    13 | 38:22.03 | 2:59.31 | 172653 | 186108
    14 | 41:21.34 | 3:17.24 | 186109 | 200907
    15 | 44:38.58 | 4:58.48 | 200908 | 223305

    Трек 1

    Имя файла D:\Documents and Settings\user\Рабочий стол\«»—0–\01 DOK Exit.wav

    Длина предзазора 0:00:02.00

    Пиковый уровень 65.3 %
    Скорость извлечения 5.0 X
    Качество трека 100.0 %
    CRC копии C46C6725
    Копирование... OK

    Трек 2

    Имя файла D:\Documents and Settings\user\Рабочий стол\«»—0–\02 DOK Red.wav

    Пиковый уровень 100.0 %
    Скорость извлечения 5.2 X
    Качество трека 100.0 %
    CRC копии 45117B0A
    Копирование... OK

    Трек 3

    Имя файла D:\Documents and Settings\user\Рабочий стол\«»—0–\03 DOK Charles.wav

    Пиковый уровень 100.0 %
    Скорость извлечения 5.3 X
    Качество трека 100.0 %
    CRC копии B95EA120
    Копирование... OK

    Трек 4

    Имя файла D:\Documents and Settings\user\Рабочий стол\«»—0–\04 DOK Tse Tse.wav

    Пиковый уровень 65.3 %
    Скорость извлечения 5.8 X
    Качество трека 100.0 %
    CRC копии 2EBEEF85
    Копирование... OK

    Трек 5

    Имя файла D:\Documents and Settings\user\Рабочий стол\«»—0–\05 DOK Nerazluchnik.wav

    Пиковый уровень 100.0 %
    Скорость извлечения 6.5 X
    Качество трека 100.0 %
    CRC копии 0B605B1D
    Копирование... OK

    Трек 6

    Имя файла D:\Documents and Settings\user\Рабочий стол\«»—0–\06 DOK Pinkod.wav

    Пиковый уровень 100.0 %
    Скорость извлечения 6.2 X
    Качество трека 100.0 %
    CRC копии 6E890AA8
    Копирование... OK

    Трек 7

    Имя файла D:\Documents and Settings\user\Рабочий стол\«»—0–\07 DOK Atoll.wav

    Пиковый уровень 100.0 %
    Скорость извлечения 6.7 X
    Качество трека 100.0 %
    CRC копии 54BF242B
    Копирование... OK

    Трек 8

    Имя файла D:\Documents and Settings\user\Рабочий стол\«»—0–\08 DOK Ozon.wav

    Пиковый уровень 65.3 %
    Скорость извлечения 7.1 X
    Качество трека 100.0 %
    CRC копии 1D96959A
    Копирование... OK

    Трек 9

    Имя файла D:\Documents and Settings\user\Рабочий стол\«»—0–\09 DOK Palax.wav

    Пиковый уровень 100.0 %
    Скорость извлечения 6.2 X
    Качество трека 99.9 %
    CRC копии 95EA14E9
    Копирование... OK

    Трек 10

    Имя файла D:\Documents and Settings\user\Рабочий стол\«»—0–\10 DOK Alkoula.wav

    Пиковый уровень 100.0 %
    Скорость извлечения 6.4 X
    Качество трека 99.9 %
    CRC копии 0D141371
    Копирование... OK

    Трек 11

    Имя файла D:\Documents and Settings\user\Рабочий стол\«»—0–\11 DOK Segodnia And Vchera.wav

    Пиковый уровень 100.0 %
    Скорость извлечения 7.7 X
    Качество трека 100.0 %
    CRC копии 4965B15F
    Копирование... OK

    Трек 12

    Имя файла D:\Documents and Settings\user\Рабочий стол\«»—0–\12 DOK Nasekomoe.wav

    Пиковый уровень 100.0 %
    Скорость извлечения 6.7 X
    Качество трека 99.9 %
    CRC копии 0F282A96
    Копирование... OK

    Трек 13

    Имя файла D:\Documents and Settings\user\Рабочий стол\«»—0–\13 DOK Kora (bonus track).wav

    Пиковый уровень 100.0 %
    Скорость извлечения 7.8 X
    Качество трека 100.0 %
    CRC копии 30914218
    Копирование... OK

    Трек 14

    Имя файла D:\Documents and Settings\user\Рабочий стол\«»—0–\14 DOK Murmansk (bonus track).wav

    Пиковый уровень 100.0 %
    Скорость извлечения 8.3 X
    Качество трека 100.0 %
    CRC копии C86089E9
    Копирование... OK

    Трек 15

    Имя файла D:\Documents and Settings\user\Рабочий стол\«»—0–\15 DOK Bolit (bonus track).wav

    Пиковый уровень 65.3 %
    Скорость извлечения 9.3 X
    Качество трека 100.0 %
    CRC копии 080C01CA
    Копирование... OK

    Ошибок не произошло

    Конец отчёта

    ==== Контрольная сумма отчёта AD80AEEF88FD8684CB8EE02467650922DA3516E80960CB17E08D1CE9B2739044 ====
    Тривалість: 00:49:29
    2013. «Be Water»


    DOK | дискографія [3 альбоми] (2009-2013) [] Rock / Jazz-Rock

    01. Secunda
    02. Shu
    03. Indira
    04. Equator
    05. Nerazluchnik
    06. Be Water
    07. Kirdjali
    Audiochecker

    AUDIOCHECKER v2.0 beta (build 457) - by Dester - [email protected]
    ~~~~~~~~~~~~~~~~~~~~~~~~~~~~~~~~~~

    Started at: пятница, 05. 04. 2013. - 14:44.21
    7 files found

    1 -===- D:\hurtom.com\DOK. дискографія [3 альбоми] (2009-2013) []\2013. DOK - «Be Water»\01 DOK Secunda.
    Extracted successfully
    Conclusion: this track is CDDA with probability 99%
    Tempfile successfully deleted.

    2 -===- D:\hurtom.com\DOK. дискографія [3 альбоми] (2009-2013) []\2013. DOK - «Be Water»\02 DOK Shu.
    Extracted successfully
    Conclusion: this track is CDDA with probability 100%
    Tempfile successfully deleted.

    3 -===- D:\hurtom.com\DOK. дискографія [3 альбоми] (2009-2013) []\2013. DOK - «Be Water»\03 DOK Indira.
    Extracted successfully
    Conclusion: this track is CDDA with probability 100%
    Tempfile successfully deleted.

    4 -===- D:\hurtom.com\DOK. дискографія [3 альбоми] (2009-2013) []\2013. DOK - «Be Water»\04 DOK Equator.
    Extracted successfully
    Conclusion: this track is CDDA with probability 99%
    Tempfile successfully deleted.

    5 -===- D:\hurtom.com\DOK. дискографія [3 альбоми] (2009-2013) []\2013. DOK - «Be Water»\05 DOK To Find A Way.
    Extracted successfully
    Conclusion: this track is CDDA with probability 99%
    Tempfile successfully deleted.

    6 -===- D:\hurtom.com\DOK. дискографія [3 альбоми] (2009-2013) []\2013. DOK - «Be Water»\06 DOK Be Water.
    Extracted successfully
    Conclusion: this track is CDDA with probability 100%
    Tempfile successfully deleted.

    7 -===- D:\hurtom.com\DOK. дискографія [3 альбоми] (2009-2013) []\2013. DOK - «Be Water»\07 DOK Kirdjali.
    Extracted successfully
    Conclusion: this track is CDDA with probability 99%
    Tempfile successfully deleted.

    Finished at: пятница, 05. 04. 2013. - 14:48.34 (operation time: 0:04.12)
    Log

    Exact Audio Copy V1.0 beta 3 from 29. August 2011

    Отчёт EAC об извлечении, выполненном 5. апреля 2013, 13:35

    DOK / Be Water

    Дисковод: ASUS DRW-2014S1T Adapter: 2 ID: 8

    Режим чтения : Достоверность
    Использование точного потока : Да
    Отключение кэша аудио : Да
    Использование указателей C2 : Нет

    Коррекция смещения при чтении : 6
    Способность читать области Lead-in и Lead-out : Нет
    Заполнение пропущенных сэмплов тишиной : Да
    Удаление блоков с тишиной в начале и конце : Нет
    При вычислениях CRC использовались нулевые сэмплы : Да
    Интерфейс : Встроенный Win32-интерфейс для Win NT/2000
    Обработка зазоров : Добавлено к предыдущему треку

    Выходной формат : Пользовательский кодировщик
    Выбранный битрейт : 128 kBit/s
    Качество : Высокий
    Добавление ID3-тега : Нет
    Утилита сжатия : C:\Program Files\Exact Audio Copy\\.exe
    Дополнительные параметры : -V -8 -T "Genre=%genre%" -T "Artist=%artist%" -T "Title=%title%" -T "Album=%albumtitle%" -T "Date=%year%" -T "Tracknumber=%tracknr%" -T "Comment=%comment%" %source%

    TOC извлечённого CD

    Трек | Старт | Длительность | Начальный сектор | Конечный сектор
    ---------------------------------------------------------------------
    1 | 0:00.00 | 3:46.30 | 0 | 16979
    2 | 3:46.30 | 4:08.29 | 16980 | 35608
    3 | 7:54.59 | 5:23.29 | 35609 | 59862
    4 | 13:18.13 | 1:42.32 | 59863 | 67544
    5 | 15:00.45 | 6:58.73 | 67545 | 98967
    6 | 21:59.43 | 4:21.70 | 98968 | 118612
    7 | 26:21.38 | 5:49.72 | 118613 | 144859

    Трек 1

    Имя файла D:\Documents and Settings\user\Рабочий стол\«»—0–\01 DOK Secunda.wav

    Длина предзазора 0:00:02.00

    Пиковый уровень 100.0 %
    Скорость извлечения 4.3 X
    Качество трека 99.9 %
    CRC теста 458EFADA
    CRC копии 458EFADA
    Копирование... OK

    Трек 2

    Имя файла D:\Documents and Settings\user\Рабочий стол\«»—0–\02 DOK Shu.wav

    Пиковый уровень 100.0 %
    Скорость извлечения 5.5 X
    Качество трека 100.0 %
    CRC теста 2EA3E59E
    CRC копии 2EA3E59E
    Копирование... OK

    Трек 3

    Имя файла D:\Documents and Settings\user\Рабочий стол\«»—0–\03 DOK Indira.wav

    Пиковый уровень 99.8 %
    Скорость извлечения 5.7 X
    Качество трека 99.9 %
    CRC теста FCC96F65
    CRC копии FCC96F65
    Копирование... OK

    Трек 4

    Имя файла D:\Documents and Settings\user\Рабочий стол\«»—0–\04 DOK Equator.wav

    Пиковый уровень 99.0 %
    Скорость извлечения 5.4 X
    Качество трека 100.0 %
    CRC теста F7D095B2
    CRC копии F7D095B2
    Копирование... OK

    Трек 5

    Имя файла D:\Documents and Settings\user\Рабочий стол\«»—0–\05 DOK To Find A Way.wav

    Пиковый уровень 100.0 %
    Скорость извлечения 6.7 X
    Качество трека 99.9 %
    CRC теста 94793AF1
    CRC копии 94793AF1
    Копирование... OK

    Трек 6

    Имя файла D:\Documents and Settings\user\Рабочий стол\«»—0–\06 DOK Be Water.wav

    Пиковый уровень 100.0 %
    Скорость извлечения 6.5 X
    Качество трека 99.9 %
    CRC теста D286FB5D
    CRC копии D286FB5D
    Копирование... OK

    Трек 7

    Имя файла D:\Documents and Settings\user\Рабочий стол\«»—0–\07 DOK Kirdjali.wav

    Пиковый уровень 100.0 %
    Скорость извлечения 7.3 X
    Качество трека 99.9 %
    CRC теста 6D41124B
    CRC копии 6D41124B
    Копирование... OK

    Ошибок не произошло

    Конец отчёта

    ==== Контрольная сумма отчёта 202CBE4D60DD5E2D83BC91C4BB83289E30104AF87C96853192149DC43441167D ====
    Тривалість: 00:32:08

Тривалість: 01:53:28
Мова: усі композиції інструментальні
Аудіо-кодек:
Бітрейт: 895 кб/с
Джерело: ріп з оригінальних CD із власної колекції
Додаткова інформація:
рецензія на альбом «DOK» (2009)
рецензія на альбом «DVA» (2011)
про роботу над альбомом «Be Water» (2013)


Якщо Ви справді бажаєте підтримати українське - після прослуховування, якщо музика вам сподобалась, придбайте ліцензійний диск. Підтримаймо вітчизняних виконавців!


Золотий реліз (завантажене не впливає на рейтинг)
 Трекер:    Зареєстрований   

Завантажити / скачати українську музику



відео для новачків



 Зареєстрований:   2013-04-09 08:45
 Розмір:   728 MB 
 Оцінка музики:   9.8/10 (Голосів: 6)
   
Yos Ukr 
Новенький


З нами з: 18.12.12
Востаннє: 12.06.13
Повідомлень: 7

2013-04-05 21:22  
Добра музика, гарний реліз, шалені відчуття від концерту, хотілося б, щоб їх викладені в Інтернеті диски у такій добрій якості лише сприяли їх успіху і концертній популярності, тільки от мало хто захоче купувати диск, якщо можна викачати з толоки...
muhomor 
VIP


З нами з: 04.12.11
Востаннє: 03.01.21
Повідомлень: 297

2013-04-06 09:14  
Yos Ukr
Цитата:
Добра музика, гарний реліз, шалені відчуття від концерту, хотілося б, щоб їх викладені в Інтернеті диски у такій добрій якості лише сприяли їх успіху і концертній популярності, тільки от мало хто захоче купувати диск, якщо можна викачати з толоки...


особисто я за те, щоб музику купували. але сучасники серед співвітчизників краще в тисячний раз вставлять свої 5 копійок щодо нового альбому Muse чи Radiohead і будуть нити, що у нас нема чогось подібного. тому виклавши цей реліз я в першу чергу хочу, аби музику хлопців почуло якомога більше людей. і щоб ці люди дізнавшись про команду, приходили на концерти.

щодо купівлі музики, то гурт виклав альбоми у вільний доступ в інтернет. а для музикантів єдина змога заробити хоч якісь гроші - це концерти. тому хочете віддячити - ходіть на концерти!

muhomor 
VIP


З нами з: 04.12.11
Востаннє: 03.01.21
Повідомлень: 297

2013-04-08 11:40  
роздача закрита за проханням правовласника!
gosha.samovar 
VIP


З нами з: 08.09.10
Востаннє: 18.01.21
Повідомлень: 438

2013-04-08 13:33  
Я вважаю, роздачі можна закривати, якщо у продажу є диски. А їх - нема.
filmz 
Новенький


З нами з: 14.02.10
Востаннє: 23.07.13
Повідомлень: 3

2013-04-08 16:48  
Получить легально "wave-архивы" всех альбомов DOK и добровольно отблагодарить музыкантов за предоставленный релиз вы можете на сайте thankyou.ru

ssTAss 
Модератор музики


З нами з: 05.07.08
Востаннє: 19.01.21
Повідомлень: 17267

2013-04-08 19:04  
filmz написано:
Получить легально "wave-архивы"

в нас спілкуються українською

Додано через 4 хвилини 57 секунд:

gosha.samovar написано:
Я вважаю, роздачі можна закривати

що ми всі робимо тут на піратському трекері?
давайте все позакриваємо, тільки платівки з касетами оцифровані викладатимемо, гаразд?

стопіццот раз пояснював (і всіма музикантами доведено в цілому світі) трекер - це хороша безкоштовна реклама для гурту, а заробляти треба на концертах
та й хто захоче, той і так купить диск, а хто ні - то ніякими заборонами його не примусиш... тільки менше слухати вас будуть і знати, а більше всяких "бєлок", "стрєлок" і "пающіх трусов"

bot 
робот


З нами з: 30.09.07
Востаннє: 26.05.05
Повідомлень: 26925

2013-04-08 20:10  
Тему перенесено з Рок, Метал, Альтернатива, Панк, СКА до форуму Закритий розділ

Причина перенесення: правовласники "наїхали"
ssTAss

gosha.samovar 
VIP


З нами з: 08.09.10
Востаннє: 18.01.21
Повідомлень: 438

2013-04-09 20:57  
ssTAss
Я мав на увазі, теоретично можна. А щодо безкоштовної реклами - я цілком з Вами згоден.

Chornobruvui 
Частий відвідувач


З нами з: 30.01.11
Востаннє: 25.09.20
Повідомлень: 35

2013-09-09 23:51  
а торенти із закритого розділу скачати ніяк не можна?
gosha.samovar 
VIP


З нами з: 08.09.10
Востаннє: 18.01.21
Повідомлень: 438

2013-09-10 20:39  
Chornobruvui написано:
а торенти із закритого розділу скачати ніяк не можна?

А навіщо з закритого? Качайте тут.

ssTAss 
Модератор музики


З нами з: 05.07.08
Востаннє: 19.01.21
Повідомлень: 17267

2013-09-10 20:50  
gosha.samovar написано:
Качайте тут

)))
це і є закритий розділ
Chornobruvui написано:
а торенти із закритого розділу скачати ніяк не можна?

можна як і зі звичайного
просто закритий розділ є невидимий для новачків і для пошуковців (гугль і т.п.)

Chornobruvui 
Частий відвідувач


З нами з: 30.01.11
Востаннє: 25.09.20
Повідомлень: 35

2013-09-11 02:04  
ssTAss написано:
можна як і зі звичайного


Цікаво. Бо я вже третій день не можу скачати, попри те, що постійно 1-2 людини на роздачі. Просто не хоче скачувати, і все.

ssTAss 
Модератор музики


З нами з: 05.07.08
Востаннє: 19.01.21
Повідомлень: 17267

2013-09-11 21:15  
Chornobruvui написано:
Просто не хоче скачувати, і все.

значить роздають з закритими портами... і у Вас, напевно, теж
треба когось з відкритими

demotyvator 
Частий відвідувач


З нами з: 24.02.12
Востаннє: 27.12.20
Повідомлень: 40

2015-03-20 09:16  
Не зважаючи на закритий розділ, рекомендую всім, хто любить Instrumental. Справді гарна і якісна музика.

Дякую автору релізу.

diogendog 
Новенький


З нами з: 30.03.11
Востаннє: 16.12.20
Повідомлень: 9

2020-11-13 13:42  
Вітаю!
Чи є можливістьоновити роздачу?

ssTAss 
Модератор музики


З нами з: 05.07.08
Востаннє: 19.01.21
Повідомлень: 17267

2020-11-13 13:56  
diogendog
не треба флудити у кожній темі
Щоб покликати сідерів користуйтесь відповідною кнопкою вгорі "Покликати сідерів"

Додано через 6 хвилин 38 секунд:

diogendog написано:

Віддано: 626 MB +291 MB
Завантажено: 38.64 GB
Рейтинг: 0.02

та й не впевнений, що це щось Вам дасть, навіть коли і стануть на роздачу навряд чи зможете завантажити з Вашим рейтингом

Ваш часовий пояс: GMT + 2 Години

Нова тема   Відповісти