Ральф-руйнівник / Wreck-It Ralph (2012) 1080p 3D SideBySide Ukr/Eng

Нові коментарі

Нова тема   Відповісти
Автор Повідомлення
dinosaurus 
Частий відвідувач


З нами з: 13.12.10
Востаннє: 17.07.17
Повідомлень: 36

2013-04-03 00:59  
Ральф-руйнівник / Wreck-It Ralph (2012) 1080p 3D SideBySide Ukr/Eng

Ральф-руйнівник / Wreck-It Ralph (2012) 1080p 3D SideBySide Ukr/Eng


Жанр: анімація, комедія, пригодницький, сімейний
Країна: США



Кіностудія / кінокомпанія: Walt Disney Animation Studios
Режисер: Річ Мур (Rich Moore)
Актори: Алан Т'юдік (Alan Tudyk), Джон К. Рейлі (John C. Reilly), Джейн Лінч (Jane Lynch), Ед О’Ніл (Ed O'Neill), Стефані Скотт (Stefanie Scott), Рейчел Харріс (Rachael Harris), Сара Сілверман (Sarah Silverman)

Сюжет:
Ральф змушений щодня бути поганим хлопцем, все псувати й усім погрожувати, хоч він і не вважає це своїм призначенням, адже щоночі мріє стати хорошим. Але від нього самого мало що залежить, бо Ральф – персонаж комп’ютерної гри. На пошуки кращого себе він мандрує 8-бітним світом, який, як відомо, дуже непередбачуваний




Маленький EasterEgg: звідки в американськім 8-бітнім ігровім автоматі такі символи? Wink (2)


Тривалість: 01:41:13
Якість:
Відео:
кодек:
розмір кадру: 1980 х 812
бітрейт: 5483-8410 кб/с

Аудіо # 1:
мова: українська
переклад: професійний дубльований
кодек: 5.1
бітрейт: 640 кб/с

Аудіо # 2:
мова: англійська
переклад: оригінал
кодек: 5.1
бітрейт: 448 кб/с

Джерело озвучення:
Info
General
Unique ID : 247172193351399978489647297265340410141 (0xB9F3A20315166DBBBBEABF2870F6691D)
Complete name : D:\film\animation\WRECK_IT_RALPH_3D.
Format :
Format version : Version 4 / Version 2
File size : 4.74 GiB
Duration : 1h 41mn
Overall bit rate mode : Variable
Overall bit rate : 6 704 Kbps
Movie name : WRECK_IT_RALPH_3D_BLUEBIRD.Title800.Bluray3DRip
Encoded date : UTC 2013-03-24 17:31:03
Writing application : mkvmerge v6.1.0 ('Old Devil') built on Mar 2 2013 14:32:37
Writing library : libebml v1.3.0 + libmatroska v1.4.0
Attachment : Yes / Yes

Video
ID : 1
Format : AVC
Format/Info : Advanced Video Codec
Format profile : [email protected]
Format settings, CABAC : Yes
Format settings, ReFrames : 2 frames
Codec ID : V_MPEG4/ISO/AVC
Duration : 1h 41mn
Bit rate mode : Variable
Bit rate : 5 483 Kbps
Maximum bit rate : 8 410 Kbps
Width : 1 920 pixels
Height : 812 pixels
Display aspect ratio : 2.35:1
Frame rate mode : Constant
Frame rate : 23.976 fps
Color space : YUV
Chroma subsampling : 4:2:0
Bit depth : 8 bits
Scan type : Progressive
Bits/(Pixel*Frame) : 0.147
Stream size : 3.88 GiB (82%)
Default : Yes
Forced : No

Audio #1
ID : 2
Format : AC-3
Format/Info : Audio Coding 3
Mode extension : CM (complete main)
Format settings, Endianness : Big
Codec ID : A_AC3
Duration : 1h 41mn
Bit rate mode : Constant
Bit rate : 640 Kbps
Channel(s) : 6 channels
Channel positions : Front: L C R, Side: L R, LFE
Sampling rate : 48.0 KHz
Bit depth : 16 bits
Compression mode : Lossy
Stream size : 463 MiB (10%)
Language : Ukrainian
Default : Yes
Forced : No

Audio #2
ID : 3
Format : AC-3
Format/Info : Audio Coding 3
Mode extension : CM (complete main)
Format settings, Endianness : Big
Codec ID : A_AC3
Duration : 1h 41mn
Bit rate mode : Constant
Bit rate : 448 Kbps
Channel(s) : 6 channels
Channel positions : Front: L C R, Side: L R, LFE
Sampling rate : 48.0 KHz
Bit depth : 16 bits
Compression mode : Lossy
Stream size : 324 MiB (7%)
Language : English
Default : No
Forced : No
Скріншоти










Джерело:
Особиста оцінка: 10 - без зайвих вагань рекомендую всім!


 Трекер:    Зареєстрований   

Завантажити / скачати мультфільм українською



відео для новачків



 Зареєстрований:   2013-04-03 00:59
 Розмір:   4.74 GB 
 Оцінка мультфільму:   9.8/10 (Голосів: 22)
   
Інші релізи
dinosaurus 
Частий відвідувач


З нами з: 13.12.10
Востаннє: 17.07.17
Повідомлень: 36

2013-04-04 03:20  
Вибачте, маю технічні проблеми, до кінця тижня повноцінна роздача повинна відновитися
alienware 
Свій


З нами з: 21.12.09
Востаннє: 07.08.17
Повідомлень: 63

2013-04-04 13:45  
дякую, дітям сподобався! нічим не гірший за оскароносний мультфільм Відважна!
чекаю...

odin29 
Свій


З нами з: 24.12.09
Востаннє: 08.01.16
Повідомлень: 86

2013-04-16 00:04  
Мультфільм хороший, цікавий, але до десятки не дотягує, моя оцінка 7, це дуже непогано.
Цікаво, а звідки в кінці мультфільму взялися кириличні літери???

lpershyi 
Попереджень: 2
Попереджень: 2 


З нами з: 04.01.11
Востаннє: 03.08.17
Повідомлень: 2743

2013-07-21 19:24  
odin29 написано:
звідки в кінці
І мене цікавить, бо вбивчий скрін оригіналу
такий

Gybalj 
Свій


З нами з: 14.05.09
Востаннє: 22.08.17
Повідомлень: 56

2015-01-03 15:17  
Швидкості пліз!Діти чекають!
Ваш часовий пояс: GMT + 2 Години

Нова тема   Відповісти