Лист до Момо / Momo e no Tegami / A Letter to Momo (2011)

Нові коментарі

Нова тема   Відповісти
Автор Повідомлення
Anonymous 







2013-03-19 17:52  
Лист до Момо / Momo e no Tegami / A Letter to Momo (2011)


Жанр: пригоди, комедія, фентезі, драма
Країна: Японія


7.15 (243 голосів)

Кіностудія / кінокомпанія:
Режисер: Хіроюкі Окіура
Ролі озвучують: Міяма Карен Тані Ікуко Сакаґучі Йошісада Нішіда Тошіюкі Ямадера Койчі

Сюжет:
У Момо раптово помирає батько, і вона змушена переїхати до маленького містечка, в якому, здається, завмер час… Батько почав було писати їй листа та зупинився тільки на “Люба Момо”. Що він хотів їй сказати? Одного дня на горищі вона знаходить стару книгу – з тих пір в її житті починають ставатися дещо несподівані речі…
© 路傍の人


Тривалість: 2 год. 4 хв
Якість:
Відео:
кодек:
розмір кадру: 720 х 400
бітрейт: 1 800 кб/с

Аудіо # 1:
мова: українська
переклад: двоголосий закадровий семпл (24 мб)
кодек: 5.1
бітрейт: 448 кб/с

Переклад: Sensetivity, The_P6
Редактори: DEMO, Dontsov
Тест читали: Emeri & Mr.Bero
Робота зі звуком: Sensetivity
Збірка 5.1 доріжки: loster01
Детальні тех. дані
МediaInfo

General
Complete name : F:\RIP\Momo e no Tegami (2011) .avi
Format : AVI
Format/Info : Audio Video Interleave
File size : 1.90 GiB
Duration : 2h 0mn
Overall bit rate : 2 257 Kbps
Movie name : Лист до Момо / Momo e no Tegami / A Letter to Momo
Director : Sensetivity
Writing application : VirtualDubMod 1.5.10.3 | www.virtualdub-fr.org || (build 2550/release)
Writing library : VirtualDubMod build 2550/release

Video
ID : 0
Format : MPEG-4 Visual
Format profile : Advanced [email protected]
Format settings, BVOP : 2
Format settings, QPel : No
Format settings, GMC : No warppoints
Format settings, Matrix : Custom
Codec ID :
Codec ID/Hint :
Duration : 2h 0mn
Bit rate : 1 800 Kbps
Width : 720 pixels
Height : 400 pixels
Display aspect ratio : 16:9
Frame rate : 23.976 fps
Color space : YUV
Chroma subsampling : 4:2:0
Bit depth : 8 bits
Scan type : Progressive
Compression mode : Lossy
Bits/(Pixel*Frame) : 0.261
Stream size : 1.52 GiB (80%)
Writing library : 1.2.1 (UTC 2008-12-04)

Audio
ID : 1
Format : AC-3
Format/Info : Audio Coding 3
Mode extension : CM (complete main)
Format settings, Endianness : Big
Codec ID : 2000
Duration : 2h 0mn
Bit rate mode : Constant
Bit rate : 448 Kbps
Channel(s) : 6 channels
Channel positions : Front: L C R, Side: L R, LFE
Sampling rate : 48.0 KHz
Bit depth : 16 bits
Compression mode : Lossy
Stream size : 386 MiB (20%)
Alignment : Split accross interleaves
Interleave, duration : 42 ms (1.00 video frame)
Interleave, preload duration : 500 ms
Title : [Emeri & Mr.Bero]
Bitrate Viewer

Скріншоти









Джерело: &
Особиста оцінка: 8 - мені сподобалося


Авторський реліз (завантажувати можна без реєстрації)
 Трекер:    Зареєстрований   

Завантажити / скачати аніме українською



відео для новачків



 Зареєстрований:   2013-03-19 17:52
 Розмір:   1.9 GB 
 Оцінка аніме:   7.6/10 (Голосів: 16)
   
Konfucius 
Управління
Управління


З нами з: 30.09.07
Востаннє: 21.08.17
Повідомлень: 4941

2013-03-19 22:52  
Допишіть до назви над головним малюнком рік випуску.

NeetScrool написано:
1 серія: 2 год. 4 хв

Це хіба серіал?

Anonymous 







2013-03-19 23:50  
Konfucius
зроблено.

EvGaS 
Відео Гуртом - підтримка та поширення
Відео Гуртом - підтримка та поширення


З нами з: 27.02.12
Востаннє: 21.08.17
Повідомлень: 3332

2017-01-24 07:12  

Гарна сільсько-побутова казка/фентезі, може й одна з найкращих серед собі подібних.
(хоча відверто дурні місцеві японобабайки мені не надто сподобалися, ну й «Котобус» версії 2.0 теж доволі страшним видався,
наче зомбаків з дна морського в купу накидали)
а по сюжету, летів метеор зі ртуті, краплини попали на дівчинку, вона вдихнула випари, і понеслося (ну, така альтернатива спала на думку)))

Але те так, насправді — гарна двогодинна казка для вже майже не дітей.

Ваш часовий пояс: GMT + 2 Години

Нова тема   Відповісти