Світляк / FireFly (2002-2003) Blu-Ray 1080p Eng/Ger/Fra/Spa/Eng/Ukr | Sub Multi

Нові коментарі

Нова тема   Відповісти
Автор Повідомлення
abodnya 
Відео Гуртом - фільмокрай
Відео Гуртом - фільмокрай


З нами з: 02.11.08
Востаннє: 01.08.19
Повідомлень: 5930

2013-03-17 13:32  
Світляк / FireFly (2002-2003) Blu-Ray 1080p Eng/Ger/Fra/Spa/Eng/Ukr | Sub Multi

Світляк / FireFly (2002-2003) Blu-Ray 1080p Eng/Ger/Fra/Spa/Eng/Ukr | Sub Multi


Жанр: наукова фантастика, космічний вестерн, драма
Країна: США



Кіностудія / кінокомпанія: Mutant Enemy Productions / 20th Century Fox Television
Режисер: Джош Відон, Майкл Гросман
Актори: Малькольм «Мел» Рейнольдс, Зої Еллейн Уошберн, Хобан «Уош» Уошберн, Інара Серра, Джейн Кобб, Кейуінніт Лі «Кейлі» Фрай, Доктор Саймон Тем, Рівер Тем, Дерріал «Пастор» Бук

Сюжет:
Дія серіалу відбувається в 2517 році на декількох планетах і супутниках. Телесеріал не розкриває, чи знаходяться ці небесні тіла в одній зоряній системі, і не пояснює, чи має Сереніті надсвітловий двигун (він просто називається «Гравітаційним рушієм»). У кінофільмі Міссія «Сереніті» говориться, що всі планети і супутники знаходяться в одній великій системі, а документи про фільм указують на те, що в цьому всесвіті не існує методів переміщення швидше швидкості світла. Персонажі іноді згадують «Землю-яка-була», і у фільмі говориться, що задовго до подій серіалу велика частина населення Землі емігрувала в ново-відкриту систему у великих колоніальних кораблях: «Земля-яка-була не могла більше підтримувати нашу кількість, нас було так багато». Емігранти поселилися в новій системі з «десятками планет і сотнями місяців». Багато хто з цих був терраформіровані, але дальні поселення часто не отримували подальшої допомоги у відтворенні їх цивілізацій. В результаті багато прикордонних планет і супутники мають сухий, пустельний клімат, що досить добре підходить жанру вестерн.


Тривалість: 1 серія: 1 серія: 01:26:42, 2-14 серії: ~ 42 хв. (цілком серій: 14)
Перелік серій
01. Serenity / Сереніті
02. The Train Job / Пограбування потяга
03. Bushwhacked / Божевільний
04. Shindig / Вечірка
05. Safe / Порятунок
06. Our Mrs. Reynolds / Наша місіс Рейнольдс
07. Jaynestown / Джейнтаун
08. Out of Gas / Аварія
09. Ariel / Аріель
10. War Stories / Воєнні історії
11. Trash / Сміття
12. The Message / Послання
13. Heart of Gold / Золоте серце
14. Objects in Space / Об'єкти в космосі
Якість: BluRay Disc
Відео: кодек: розмір кадру: 1920x1080 бітрейт: 28 Мбіт/с (VBR)
Аудіо # 1: мова: англійська переклад: оригінал кодек: -HD 5.1 бітрейт: ~4000 кб/с (VBR)
Аудіо # 2: мова: німецька переклад: професійний дубльований кодек: 5.1 бітрейт: 768 кб/с
Аудіо # 3: мова: французька переклад: професійний дубльований кодек: 2.0 бітрейт: 224 кб/с
Аудіо # 4: мова: іспанська переклад: професійний дубльований кодек: 2.0 бітрейт: 224 кб/с
Аудіо # 5: мова: англійська переклад: комментарі кодек: 2.0 бітрейт: 224 кб/с
Аудіо # 6: мова: українська переклад: багатоголосий закадровий кодек: 2.0 бітрейт: 192 кб/с

Джерело озвучення:
"Три Крапки"

Субтитри # 1: мова: англійська тип: пререндерні
Субтитри # 2: мова: датська тип: пререндерні
Субтитри # 3: мова: французька тип: пререндерні
Субтитри # 4: мова: німецька тип: пререндерні
Субтитри # 5: мова: англійська тип: пререндерні
Субтитри # 6: мова: іспанська тип: пререндерні
Субтитри # 7: мова: іспанська тип: пререндерні
Info
Загальне
ідентифікатор : 1
повна назва : J:\Releases\FireFly (2002-2003) [Eng.Ger.Fra.Spa.Eng.Ukr, MultiSub] Blu-Ray [Hurtom]\Disc 1\BDMV\STREAM\00001.m2ts
формат : BDAV
формат/відомості : Blu-ray Video
розмір файлу : 17.0 ГіБ
тривалість : 1 год.
усереднений бітрейт : 28.1 Мбіт/сек
максимальний бітрейт : 35.5 Мбіт/сек

Відео
ідентифікатор : 4113 (0x1011)
меню ідентифікатора : 1 (0x1)
формат : AVC
формат/відомості : Advanced Video Codec
формат профілю : [email protected]
CABAC : Так
ReFrames : 3 кадр(-и,-ів)
Format_Settings_GOP : M=3, N=15
тривалість : 1 год.
режим розрахунку бітрейта : змінний (VBR)
максимальний бітрейт : 40.0 Мбіт/сек
ширина : 1 920 пікс.
висота : 1 080 пікс.
відношення сотрін : 16:9
частота кадрів : 23.976 кадр/сек
ColorSpace : YUV
ChromaSubsampling : 4:2:0
BitDepth/String : 8 біт
сканування типу : прогресивний
мова : English

Аудіо #1
ідентифікатор : 4352 (0x1100)
меню ідентифікатора : 1 (0x1)
формат :
формат/відомості : Digital Theater Systems
формат профілю : MA
MuxingMode : Stream extension
тривалість : 1 год.
режим розрахунку бітрейта : змінний (VBR)
кількість каналів : 6 канал(-и,-ів)
позиції каналів : Front: L C R, Side: L R, LFE
частота дискретизації : 48.0 кГц
BitDepth/String : 24 біт
затримка відео : 4 мілісек.
мова : English

Аудіо #2
ідентифікатор : 4353 (0x1101)
меню ідентифікатора : 1 (0x1)
формат :
формат/відомості : Digital Theater Systems
тривалість : 1 год.
режим розрахунку бітрейта : постіний (CBR)
бітрейт : 755 Кбіт/сек
кількість каналів : 6 канал(-и,-ів)
позиції каналів : Front: L C R, Side: L R, LFE
частота дискретизації : 48.0 кГц
BitDepth/String : 16 біт
затримка відео : 4 мілісек.
розмір потоку : 468 МіБ (3%)
мова : German

Аудіо #3
ідентифікатор : 4354 (0x1102)
меню ідентифікатора : 1 (0x1)
формат : AC-3
формат/відомості : Audio Coding 3
формат профілю : Dolby Digital
Format_Settings_ModeExtension : CM (complete main)
тривалість : 1 год.
режим розрахунку бітрейта : постіний (CBR)
бітрейт : 224 Кбіт/сек
кількість каналів : 2 канал(-и,-ів)
позиції каналів : Front: L R
частота дискретизації : 48.0 кГц
BitDepth/String : 16 біт
затримка відео : 15 мілісек.
розмір потоку : 139 МіБ (1%)
мова : French

Аудіо #4
ідентифікатор : 4355 (0x1103)
меню ідентифікатора : 1 (0x1)
формат : AC-3
формат/відомості : Audio Coding 3
формат профілю : Dolby Digital
Format_Settings_ModeExtension : CM (complete main)
тривалість : 1 год.
режим розрахунку бітрейта : постіний (CBR)
бітрейт : 224 Кбіт/сек
кількість каналів : 2 канал(-и,-ів)
позиції каналів : Front: L R
частота дискретизації : 48.0 кГц
BitDepth/String : 16 біт
затримка відео : 15 мілісек.
розмір потоку : 139 МіБ (1%)
мова : Spanish

Аудіо #5
ідентифікатор : 4356 (0x1104)
меню ідентифікатора : 1 (0x1)
формат : AC-3
формат/відомості : Audio Coding 3
Format_Settings_ModeExtension : CM (complete main)
тривалість : 1 год.
режим розрахунку бітрейта : постіний (CBR)
бітрейт : 224 Кбіт/сек
кількість каналів : 2 канал(-и,-ів)
позиції каналів : Front: L R
частота дискретизації : 48.0 кГц
BitDepth/String : 16 біт
затримка відео : 15 мілісек.
розмір потоку : 139 МіБ (1%)
мова : English

Аудіо #6
ідентифікатор : 4357 (0x1105)
меню ідентифікатора : 1 (0x1)
формат : AC-3
формат/відомості : Audio Coding 3
Format_Settings_ModeExtension : CM (complete main)
тривалість : 1 год.
режим розрахунку бітрейта : постіний (CBR)
бітрейт : 192 Кбіт/сек
кількість каналів : 2 канал(-и,-ів)
позиції каналів : Front: L R
частота дискретизації : 44.1 кГц
BitDepth/String : 16 біт
розмір потоку : 119 МіБ (1%)
мова : Ukrainian

текст #1
ідентифікатор : 4608 (0x1200)
меню ідентифікатора : 1 (0x1)
формат : PGS
затримка відео : 1 сек.
мова : English

текст #2
ідентифікатор : 4609 (0x1201)
меню ідентифікатора : 1 (0x1)
формат : PGS
мова : Dutch

текст #3
ідентифікатор : 4610 (0x1202)
меню ідентифікатора : 1 (0x1)
формат : PGS
мова : French

текст #4
ідентифікатор : 4611 (0x1203)
меню ідентифікатора : 1 (0x1)
формат : PGS
мова : German

текст #5
ідентифікатор : 4612 (0x1204)
меню ідентифікатора : 1 (0x1)
формат : PGS
мова : Spanish

текст #6
ідентифікатор : 4613 (0x1205)
меню ідентифікатора : 1 (0x1)
формат : PGS
мова : Spanish
BDInfo
Disc Title: Disc 1
Disc Size: 47 248 160 184 bytes
Protection: AACS
BD-Java: Yes
BDInfo: 0.5.8

Notes:

BDINFO HOME:
Cinema Squid
http://www.cinemasquid.com/blu-ray/tools/bdinfo

INCLUDES FORUMS REPORT FOR:
AVS Forum Blu-ray Audio and Video Specifications Thread
http://www.avsforum.com/avs-vb/showthread.php?t=1155731

WARNING: Report is incomplete because: Scan has not been run.

********************
PLAYLIST: 00001.MPLS
********************

<--- BEGIN FORUMS PASTE --->
Код:

                                                                                                                Total   Video
Title                                                           Codec   Length  Movie Size      Disc Size       Bitrate Bitrate Main Audio Track                          Secondary Audio Track
-----                                                           ------  ------- --------------  --------------  ------- ------- ------------------                        ---------------------
00001.MPLS                                                      AVC     1:26:42 0               47 248 160 184  0,00    0,00    -HD Master 5.1 (48kHz/24-bit)


Код:


DISC INFO:

Disc Title:     Disc 1
Disc Size:      47 248 160 184 bytes
Protection:     AACS
BD-Java:        Yes
BDInfo:         0.5.8

PLAYLIST REPORT:

Name:                   00001.MPLS
Length:                 1:26:42.198 (h:m:s.ms)
Size:                   0 bytes
Total Bitrate:          0,00 Mbps

VIDEO:

Codec                   Bitrate             Description
-----                   -------             -----------
MPEG-4 AVC Video        0 kbps              1080p / 23,976 fps / 16:9 / High Profile 4.1

AUDIO:

Codec                           Language        Bitrate         Description
-----                           --------        -------         -----------
-HD Master Audio             English         0 kbps          5.1 / 48 kHz / 24-bit ( Core: 5.1 / 48 kHz / 1509 kbps / 24-bit)
Audio                       German          768 kbps        5.1 / 48 kHz / 768 kbps / 16-bit
Dolby Digital Audio             French          224 kbps        2.0 / 48 kHz / 224 kbps / DN -4dB / Dolby Surround
Dolby Digital Audio             Spanish         224 kbps        2.0 / 48 kHz / 224 kbps / DN -4dB / Dolby Surround
Dolby Digital Audio             English         224 kbps        2.0 / 48 kHz / 224 kbps / DN -4dB
Dolby Digital Audio             Ukrainian       192 kbps        2.0 / 44 kHz / 192 kbps

SUBTITLES:

Codec                           Language        Bitrate         Description
-----                           --------        -------         -----------
Presentation Graphics           English         0,000 kbps
Presentation Graphics           Dutch           0,000 kbps
Presentation Graphics           French          0,000 kbps
Presentation Graphics           German          0,000 kbps
Presentation Graphics           Spanish         0,000 kbps
Presentation Graphics           Spanish         0,000 kbps

FILES:

Name            Time In         Length          Size            Total Bitrate
----            -------         ------          ----            -------------
00001.M2TS      0:00:00.000     1:26:42.198     0               0

CHAPTERS:

Number          Time In         Length          Avg Video Rate  Max 1-Sec Rate  Max 1-Sec Time  Max 5-Sec Rate  Max 5-Sec Time  Max 10Sec Rate  Max 10Sec Time  Avg Frame Size  Max Frame Size  Max Frame Time
------          -------         ------          --------------  --------------  --------------  --------------  --------------  --------------  --------------  --------------  --------------  --------------
1               0:00:00.000     0:05:06.514     0 kbps          0 kbps          00:00:00.000    0 kbps          00:00:00.000    0 kbps          00:00:00.000    0 bytes         0 bytes         00:00:00.000
2               0:05:06.514     0:05:52.268     0 kbps          0 kbps          00:00:00.000    0 kbps          00:00:00.000    0 kbps          00:00:00.000    0 bytes         0 bytes         00:00:00.000
3               0:10:58.782     0:00:51.926     0 kbps          0 kbps          00:00:00.000    0 kbps          00:00:00.000    0 kbps          00:00:00.000    0 bytes         0 bytes         00:00:00.000
4               0:11:50.709     0:04:56.087     0 kbps          0 kbps          00:00:00.000    0 kbps          00:00:00.000    0 kbps          00:00:00.000    0 bytes         0 bytes         00:00:00.000
5               0:16:46.797     0:05:20.028     0 kbps          0 kbps          00:00:00.000    0 kbps          00:00:00.000    0 kbps          00:00:00.000    0 bytes         0 bytes         00:00:00.000
6               0:22:06.825     0:05:31.164     0 kbps          0 kbps          00:00:00.000    0 kbps          00:00:00.000    0 kbps          00:00:00.000    0 bytes         0 bytes         00:00:00.000
7               0:27:37.989     0:06:42.110     0 kbps          0 kbps          00:00:00.000    0 kbps          00:00:00.000    0 kbps          00:00:00.000    0 bytes         0 bytes         00:00:00.000
8               0:34:20.099     0:01:44.395     0 kbps          0 kbps          00:00:00.000    0 kbps          00:00:00.000    0 kbps          00:00:00.000    0 bytes         0 bytes         00:00:00.000
9               0:36:04.495     0:06:07.992     0 kbps          0 kbps          00:00:00.000    0 kbps          00:00:00.000    0 kbps          00:00:00.000    0 bytes         0 bytes         00:00:00.000
10              0:42:12.487     0:05:31.414     0 kbps          0 kbps          00:00:00.000    0 kbps          00:00:00.000    0 kbps          00:00:00.000    0 bytes         0 bytes         00:00:00.000
11              0:47:43.902     0:02:42.621     0 kbps          0 kbps          00:00:00.000    0 kbps          00:00:00.000    0 kbps          00:00:00.000    0 bytes         0 bytes         00:00:00.000
12              0:50:26.523     0:02:33.779     0 kbps          0 kbps          00:00:00.000    0 kbps          00:00:00.000    0 kbps          00:00:00.000    0 bytes         0 bytes         00:00:00.000
13              0:53:00.302     0:03:50.687     0 kbps          0 kbps          00:00:00.000    0 kbps          00:00:00.000    0 kbps          00:00:00.000    0 bytes         0 bytes         00:00:00.000
14              0:56:50.989     0:02:04.667     0 kbps          0 kbps          00:00:00.000    0 kbps          00:00:00.000    0 kbps          00:00:00.000    0 bytes         0 bytes         00:00:00.000
15              0:58:55.657     0:02:44.329     0 kbps          0 kbps          00:00:00.000    0 kbps          00:00:00.000    0 kbps          00:00:00.000    0 bytes         0 bytes         00:00:00.000
16              1:01:39.987     0:02:46.875     0 kbps          0 kbps          00:00:00.000    0 kbps          00:00:00.000    0 kbps          00:00:00.000    0 bytes         0 bytes         00:00:00.000
17              1:04:26.862     0:08:56.077     0 kbps          0 kbps          00:00:00.000    0 kbps          00:00:00.000    0 kbps          00:00:00.000    0 bytes         0 bytes         00:00:00.000
18              1:13:22.939     0:07:16.727     0 kbps          0 kbps          00:00:00.000    0 kbps          00:00:00.000    0 kbps          00:00:00.000    0 bytes         0 bytes         00:00:00.000
19              1:20:39.667     0:05:08.808     0 kbps          0 kbps          00:00:00.000    0 kbps          00:00:00.000    0 kbps          00:00:00.000    0 bytes         0 bytes         00:00:00.000
20              1:25:48.475     0:00:52.719     0 kbps          0 kbps          00:00:00.000    0 kbps          00:00:00.000    0 kbps          00:00:00.000    0 bytes         0 bytes         00:00:00.000
21              1:26:41.195     0:00:01.003     0 kbps          0 kbps          00:00:00.000    0 kbps          00:00:00.000    0 kbps          00:00:00.000    0 bytes         0 bytes         00:00:00.000

STREAM DIAGNOSTICS:

File            PID             Type            Codec           Language                Seconds                 Bitrate                 Bytes           Packets
----            ---             ----            -----           --------                --------------          --------------          -------------   -----
00001.M2TS      4113 (0x1011)   0x1B            AVC                                     0                       0                       0               0
00001.M2TS      4352 (0x1100)   0x86            -HD MA       eng (English)           0                       0                       0               0
00001.M2TS      4353 (0x1101)   0x82                         deu (German)            0                       0                       0               0
00001.M2TS      4354 (0x1102)   0x81                         fra (French)            0                       0                       0               0
00001.M2TS      4355 (0x1103)   0x81                         spa (Spanish)           0                       0                       0               0
00001.M2TS      4356 (0x1104)   0x81                         eng (English)           0                       0                       0               0
00001.M2TS      4357 (0x1105)   0x81                         ukr (Ukrainian)         0                       0                       0               0
00001.M2TS      4608 (0x1200)   0x90            PGS             eng (English)           0                       0                       0               0
00001.M2TS      4609 (0x1201)   0x90            PGS             nld (Dutch)             0                       0                       0               0
00001.M2TS      4610 (0x1202)   0x90            PGS             fra (French)            0                       0                       0               0
00001.M2TS      4611 (0x1203)   0x90            PGS             deu (German)            0                       0                       0               0
00001.M2TS      4612 (0x1204)   0x90            PGS             spa (Spanish)           0                       0                       0               0
00001.M2TS      4613 (0x1205)   0x90            PGS             spa (Spanish)           0                       0                       0               0


<---- END FORUMS PASTE ---->

QUICK SUMMARY:

Disc Title: Disc 1
Disc Size: 47 248 160 184 bytes
Protection: AACS
BD-Java: Yes
Playlist: 00001.MPLS
Size: 0 bytes
Length: 1:26:42.198
Total Bitrate: 0,00 Mbps
Video: MPEG-4 AVC Video / 0 kbps / 1080p / 23,976 fps / 16:9 / High Profile 4.1
Audio: English / -HD Master Audio / 5.1 / 48 kHz / 24-bit ( Core: 5.1 / 48 kHz / 1509 kbps / 24-bit)
Audio: German / Audio / 5.1 / 48 kHz / 768 kbps / 16-bit
Audio: French / Dolby Digital Audio / 2.0 / 48 kHz / 224 kbps / DN -4dB / Dolby Surround
Audio: Spanish / Dolby Digital Audio / 2.0 / 48 kHz / 224 kbps / DN -4dB / Dolby Surround
Audio: English / Dolby Digital Audio / 2.0 / 48 kHz / 224 kbps / DN -4dB
Audio: Ukrainian / Dolby Digital Audio / 2.0 / 44 kHz / 192 kbps
Subtitle: English / 0,000 kbps
Subtitle: Dutch / 0,000 kbps
Subtitle: French / 0,000 kbps
Subtitle: German / 0,000 kbps
Subtitle: Spanish / 0,000 kbps
Subtitle: Spanish / 0,000 kbps

********************
PLAYLIST: 00004.MPLS
********************

<--- BEGIN FORUMS PASTE --->
Код:

                                                                                                                Total   Video
Title                                                           Codec   Length  Movie Size      Disc Size       Bitrate Bitrate Main Audio Track                          Secondary Audio Track
-----                                                           ------  ------- --------------  --------------  ------- ------- ------------------                        ---------------------
00004.MPLS                                                      AVC     0:43:58 0               47 248 160 184  0,00    0,00    -HD Master 5.1 (48kHz/24-bit)


Код:


DISC INFO:

Disc Title:     Disc 1
Disc Size:      47 248 160 184 bytes
Protection:     AACS
BD-Java:        Yes
BDInfo:         0.5.8

PLAYLIST REPORT:

Name:                   00004.MPLS
Length:                 0:43:58.592 (h:m:s.ms)
Size:                   0 bytes
Total Bitrate:          0,00 Mbps

VIDEO:

Codec                   Bitrate             Description
-----                   -------             -----------
MPEG-4 AVC Video        0 kbps              1080p / 23,976 fps / 16:9 / High Profile 4.1

AUDIO:

Codec                           Language        Bitrate         Description
-----                           --------        -------         -----------
-HD Master Audio             English         0 kbps          5.1 / 48 kHz / 24-bit ( Core: 5.1 / 48 kHz / 1509 kbps / 24-bit)
Audio                       German          768 kbps        5.1 / 48 kHz / 768 kbps / 16-bit
Dolby Digital Audio             French          224 kbps        2.0 / 48 kHz / 224 kbps / DN -4dB / Dolby Surround
Dolby Digital Audio             Spanish         224 kbps        2.0 / 48 kHz / 224 kbps / DN -4dB / Dolby Surround
Dolby Digital Audio             English         224 kbps        2.0 / 48 kHz / 224 kbps / DN -4dB
Dolby Digital Audio             Ukrainian       192 kbps        2.0 / 48 kHz / 192 kbps

SUBTITLES:

Codec                           Language        Bitrate         Description
-----                           --------        -------         -----------
Presentation Graphics           English         0,000 kbps
Presentation Graphics           Dutch           0,000 kbps
Presentation Graphics           French          0,000 kbps
Presentation Graphics           German          0,000 kbps
Presentation Graphics           Spanish         0,000 kbps
Presentation Graphics           Spanish         0,000 kbps

FILES:

Name            Time In         Length          Size            Total Bitrate
----            -------         ------          ----            -------------
00004.M2TS      0:00:00.000     0:43:58.592     0               0

CHAPTERS:

Number          Time In         Length          Avg Video Rate  Max 1-Sec Rate  Max 1-Sec Time  Max 5-Sec Rate  Max 5-Sec Time  Max 10Sec Rate  Max 10Sec Time  Avg Frame Size  Max Frame Size  Max Frame Time
------          -------         ------          --------------  --------------  --------------  --------------  --------------  --------------  --------------  --------------  --------------  --------------
1               0:00:00.000     0:02:12.090     0 kbps          0 kbps          00:00:00.000    0 kbps          00:00:00.000    0 kbps          00:00:00.000    0 bytes         0 bytes         00:00:00.000
2               0:02:12.090     0:00:52.343     0 kbps          0 kbps          00:00:00.000    0 kbps          00:00:00.000    0 kbps          00:00:00.000    0 bytes         0 bytes         00:00:00.000
3               0:03:04.433     0:03:32.796     0 kbps          0 kbps          00:00:00.000    0 kbps          00:00:00.000    0 kbps          00:00:00.000    0 bytes         0 bytes         00:00:00.000
4               0:06:37.230     0:04:08.497     0 kbps          0 kbps          00:00:00.000    0 kbps          00:00:00.000    0 kbps          00:00:00.000    0 bytes         0 bytes         00:00:00.000
5               0:10:45.727     0:04:58.006     0 kbps          0 kbps          00:00:00.000    0 kbps          00:00:00.000    0 kbps          00:00:00.000    0 bytes         0 bytes         00:00:00.000
6               0:15:43.734     0:03:13.818     0 kbps          0 kbps          00:00:00.000    0 kbps          00:00:00.000    0 kbps          00:00:00.000    0 bytes         0 bytes         00:00:00.000
7               0:18:57.552     0:05:29.954     0 kbps          0 kbps          00:00:00.000    0 kbps          00:00:00.000    0 kbps          00:00:00.000    0 bytes         0 bytes         00:00:00.000
8               0:24:27.507     0:06:00.192     0 kbps          0 kbps          00:00:00.000    0 kbps          00:00:00.000    0 kbps          00:00:00.000    0 bytes         0 bytes         00:00:00.000
9               0:30:27.700     0:04:51.999     0 kbps          0 kbps          00:00:00.000    0 kbps          00:00:00.000    0 kbps          00:00:00.000    0 bytes         0 bytes         00:00:00.000
10              0:35:19.699     0:04:33.190     0 kbps          0 kbps          00:00:00.000    0 kbps          00:00:00.000    0 kbps          00:00:00.000    0 bytes         0 bytes         00:00:00.000
11              0:39:52.890     0:03:27.332     0 kbps          0 kbps          00:00:00.000    0 kbps          00:00:00.000    0 kbps          00:00:00.000    0 bytes         0 bytes         00:00:00.000
12              0:43:20.222     0:00:38.369     0 kbps          0 kbps          00:00:00.000    0 kbps          00:00:00.000    0 kbps          00:00:00.000    0 bytes         0 bytes         00:00:00.000

STREAM DIAGNOSTICS:

File            PID             Type            Codec           Language                Seconds                 Bitrate                 Bytes           Packets
----            ---             ----            -----           --------                --------------          --------------          -------------   -----
00004.M2TS      4113 (0x1011)   0x1B            AVC                                     0                       0                       0               0
00004.M2TS      4352 (0x1100)   0x86            -HD MA       eng (English)           0                       0                       0               0
00004.M2TS      4353 (0x1101)   0x82                         deu (German)            0                       0                       0               0
00004.M2TS      4354 (0x1102)   0x81                         fra (French)            0                       0                       0               0
00004.M2TS      4355 (0x1103)   0x81                         spa (Spanish)           0                       0                       0               0
00004.M2TS      4356 (0x1104)   0x81                         eng (English)           0                       0                       0               0
00004.M2TS      4357 (0x1105)   0x81                         ukr (Ukrainian)         0                       0                       0               0
00004.M2TS      4608 (0x1200)   0x90            PGS             eng (English)           0                       0                       0               0
00004.M2TS      4609 (0x1201)   0x90            PGS             nld (Dutch)             0                       0                       0               0
00004.M2TS      4610 (0x1202)   0x90            PGS             fra (French)            0                       0                       0               0
00004.M2TS      4611 (0x1203)   0x90            PGS             deu (German)            0                       0                       0               0
00004.M2TS      4612 (0x1204)   0x90            PGS             spa (Spanish)           0                       0                       0               0
00004.M2TS      4613 (0x1205)   0x90            PGS             spa (Spanish)           0                       0                       0               0


<---- END FORUMS PASTE ---->

QUICK SUMMARY:

Disc Title: Disc 1
Disc Size: 47 248 160 184 bytes
Protection: AACS
BD-Java: Yes
Playlist: 00004.MPLS
Size: 0 bytes
Length: 0:43:58.592
Total Bitrate: 0,00 Mbps
Video: MPEG-4 AVC Video / 0 kbps / 1080p / 23,976 fps / 16:9 / High Profile 4.1
Audio: English / -HD Master Audio / 5.1 / 48 kHz / 24-bit ( Core: 5.1 / 48 kHz / 1509 kbps / 24-bit)
Audio: German / Audio / 5.1 / 48 kHz / 768 kbps / 16-bit
Audio: French / Dolby Digital Audio / 2.0 / 48 kHz / 224 kbps / DN -4dB / Dolby Surround
Audio: Spanish / Dolby Digital Audio / 2.0 / 48 kHz / 224 kbps / DN -4dB / Dolby Surround
Audio: English / Dolby Digital Audio / 2.0 / 48 kHz / 224 kbps / DN -4dB
Audio: Ukrainian / Dolby Digital Audio / 2.0 / 48 kHz / 192 kbps
Subtitle: English / 0,000 kbps
Subtitle: Dutch / 0,000 kbps
Subtitle: French / 0,000 kbps
Subtitle: German / 0,000 kbps
Subtitle: Spanish / 0,000 kbps
Subtitle: Spanish / 0,000 kbps

********************
PLAYLIST: 00003.MPLS
********************

<--- BEGIN FORUMS PASTE --->
Код:

                                                                                                                Total   Video
Title                                                           Codec   Length  Movie Size      Disc Size       Bitrate Bitrate Main Audio Track                          Secondary Audio Track
-----                                                           ------  ------- --------------  --------------  ------- ------- ------------------                        ---------------------
00003.MPLS                                                      AVC     0:43:54 0               47 248 160 184  0,00    0,00    -HD Master 5.1 (48kHz/24-bit)


Код:


DISC INFO:

Disc Title:     Disc 1
Disc Size:      47 248 160 184 bytes
Protection:     AACS
BD-Java:        Yes
BDInfo:         0.5.8

PLAYLIST REPORT:

Name:                   00003.MPLS
Length:                 0:43:54.626 (h:m:s.ms)
Size:                   0 bytes
Total Bitrate:          0,00 Mbps

VIDEO:

Codec                   Bitrate             Description
-----                   -------             -----------
MPEG-4 AVC Video        0 kbps              1080p / 23,976 fps / 16:9 / High Profile 4.1

AUDIO:

Codec                           Language        Bitrate         Description
-----                           --------        -------         -----------
-HD Master Audio             English         0 kbps          5.1 / 48 kHz / 24-bit ( Core: 5.1 / 48 kHz / 1509 kbps / 24-bit)
Audio                       German          768 kbps        5.1 / 48 kHz / 768 kbps / 16-bit
Dolby Digital Audio             French          224 kbps        2.0 / 48 kHz / 224 kbps / DN -4dB / Dolby Surround
Dolby Digital Audio             Spanish         224 kbps        2.0 / 48 kHz / 224 kbps / DN -4dB / Dolby Surround
Dolby Digital Audio             Ukrainian       192 kbps        2.0 / 48 kHz / 192 kbps

SUBTITLES:

Codec                           Language        Bitrate         Description
-----                           --------        -------         -----------
Presentation Graphics           English         0,000 kbps
Presentation Graphics           Dutch           0,000 kbps
Presentation Graphics           French          0,000 kbps
Presentation Graphics           German          0,000 kbps
Presentation Graphics           Spanish         0,000 kbps
Presentation Graphics           Spanish         0,000 kbps

FILES:

Name            Time In         Length          Size            Total Bitrate
----            -------         ------          ----            -------------
00003.M2TS      0:00:00.000     0:43:54.626     0               0

CHAPTERS:

Number          Time In         Length          Avg Video Rate  Max 1-Sec Rate  Max 1-Sec Time  Max 5-Sec Rate  Max 5-Sec Time  Max 10Sec Rate  Max 10Sec Time  Avg Frame Size  Max Frame Size  Max Frame Time
------          -------         ------          --------------  --------------  --------------  --------------  --------------  --------------  --------------  --------------  --------------  --------------
1               0:00:00.000     0:03:04.183     0 kbps          0 kbps          00:00:00.000    0 kbps          00:00:00.000    0 kbps          00:00:00.000    0 bytes         0 bytes         00:00:00.000
2               0:03:04.183     0:00:52.260     0 kbps          0 kbps          00:00:00.000    0 kbps          00:00:00.000    0 kbps          00:00:00.000    0 bytes         0 bytes         00:00:00.000
3               0:03:56.443     0:05:57.774     0 kbps          0 kbps          00:00:00.000    0 kbps          00:00:00.000    0 kbps          00:00:00.000    0 bytes         0 bytes         00:00:00.000
4               0:09:54.218     0:06:00.609     0 kbps          0 kbps          00:00:00.000    0 kbps          00:00:00.000    0 kbps          00:00:00.000    0 bytes         0 bytes         00:00:00.000
5               0:15:54.828     0:03:38.802     0 kbps          0 kbps          00:00:00.000    0 kbps          00:00:00.000    0 kbps          00:00:00.000    0 bytes         0 bytes         00:00:00.000
6               0:19:33.630     0:03:02.683     0 kbps          0 kbps          00:00:00.000    0 kbps          00:00:00.000    0 kbps          00:00:00.000    0 bytes         0 bytes         00:00:00.000
7               0:22:36.313     0:03:55.527     0 kbps          0 kbps          00:00:00.000    0 kbps          00:00:00.000    0 kbps          00:00:00.000    0 bytes         0 bytes         00:00:00.000
8               0:26:31.840     0:04:26.641     0 kbps          0 kbps          00:00:00.000    0 kbps          00:00:00.000    0 kbps          00:00:00.000    0 bytes         0 bytes         00:00:00.000
9               0:30:58.481     0:06:27.469     0 kbps          0 kbps          00:00:00.000    0 kbps          00:00:00.000    0 kbps          00:00:00.000    0 bytes         0 bytes         00:00:00.000
10              0:37:25.951     0:02:55.425     0 kbps          0 kbps          00:00:00.000    0 kbps          00:00:00.000    0 kbps          00:00:00.000    0 bytes         0 bytes         00:00:00.000
11              0:40:21.377     0:02:55.383     0 kbps          0 kbps          00:00:00.000    0 kbps          00:00:00.000    0 kbps          00:00:00.000    0 bytes         0 bytes         00:00:00.000
12              0:43:16.760     0:00:37.865     0 kbps          0 kbps          00:00:00.000    0 kbps          00:00:00.000    0 kbps          00:00:00.000    0 bytes         0 bytes         00:00:00.000

STREAM DIAGNOSTICS:

File            PID             Type            Codec           Language                Seconds                 Bitrate                 Bytes           Packets
----            ---             ----            -----           --------                --------------          --------------          -------------   -----
00003.M2TS      4113 (0x1011)   0x1B            AVC                                     0                       0                       0               0
00003.M2TS      4352 (0x1100)   0x86            -HD MA       eng (English)           0                       0                       0               0
00003.M2TS      4353 (0x1101)   0x82                         deu (German)            0                       0                       0               0
00003.M2TS      4354 (0x1102)   0x81                         fra (French)            0                       0                       0               0
00003.M2TS      4355 (0x1103)   0x81                         spa (Spanish)           0                       0                       0               0
00003.M2TS      4356 (0x1104)   0x81                         ukr (Ukrainian)         0                       0                       0               0
00003.M2TS      4608 (0x1200)   0x90            PGS             eng (English)           0                       0                       0               0
00003.M2TS      4609 (0x1201)   0x90            PGS             nld (Dutch)             0                       0                       0               0
00003.M2TS      4610 (0x1202)   0x90            PGS             fra (French)            0                       0                       0               0
00003.M2TS      4611 (0x1203)   0x90            PGS             deu (German)            0                       0                       0               0
00003.M2TS      4612 (0x1204)   0x90            PGS             spa (Spanish)           0                       0                       0               0
00003.M2TS      4613 (0x1205)   0x90            PGS             spa (Spanish)           0                       0                       0               0


<---- END FORUMS PASTE ---->

QUICK SUMMARY:

Disc Title: Disc 1
Disc Size: 47 248 160 184 bytes
Protection: AACS
BD-Java: Yes
Playlist: 00003.MPLS
Size: 0 bytes
Length: 0:43:54.626
Total Bitrate: 0,00 Mbps
Video: MPEG-4 AVC Video / 0 kbps / 1080p / 23,976 fps / 16:9 / High Profile 4.1
Audio: English / -HD Master Audio / 5.1 / 48 kHz / 24-bit ( Core: 5.1 / 48 kHz / 1509 kbps / 24-bit)
Audio: German / Audio / 5.1 / 48 kHz / 768 kbps / 16-bit
Audio: French / Dolby Digital Audio / 2.0 / 48 kHz / 224 kbps / DN -4dB / Dolby Surround
Audio: Spanish / Dolby Digital Audio / 2.0 / 48 kHz / 224 kbps / DN -4dB / Dolby Surround
Audio: Ukrainian / Dolby Digital Audio / 2.0 / 48 kHz / 192 kbps
Subtitle: English / 0,000 kbps
Subtitle: Dutch / 0,000 kbps
Subtitle: French / 0,000 kbps
Subtitle: German / 0,000 kbps
Subtitle: Spanish / 0,000 kbps
Subtitle: Spanish / 0,000 kbps

********************
PLAYLIST: 00002.MPLS
********************

<--- BEGIN FORUMS PASTE --->
Код:

                                                                                                                Total   Video
Title                                                           Codec   Length  Movie Size      Disc Size       Bitrate Bitrate Main Audio Track                          Secondary Audio Track
-----                                                           ------  ------- --------------  --------------  ------- ------- ------------------                        ---------------------
00002.MPLS                                                      AVC     0:42:43 0               47 248 160 184  0,00    0,00    -HD Master 5.1 (48kHz/24-bit)


Код:


DISC INFO:

Disc Title:     Disc 1
Disc Size:      47 248 160 184 bytes
Protection:     AACS
BD-Java:        Yes
BDInfo:         0.5.8

PLAYLIST REPORT:

Name:                   00002.MPLS
Length:                 0:42:43.554 (h:m:s.ms)
Size:                   0 bytes
Total Bitrate:          0,00 Mbps

VIDEO:

Codec                   Bitrate             Description
-----                   -------             -----------
MPEG-4 AVC Video        0 kbps              1080p / 23,976 fps / 16:9 / High Profile 4.1

AUDIO:

Codec                           Language        Bitrate         Description
-----                           --------        -------         -----------
-HD Master Audio             English         0 kbps          5.1 / 48 kHz / 24-bit ( Core: 5.1 / 48 kHz / 1509 kbps / 24-bit)
Audio                       German          768 kbps        5.1 / 48 kHz / 768 kbps / 16-bit
Dolby Digital Audio             French          224 kbps        2.0 / 48 kHz / 224 kbps / DN -4dB / Dolby Surround
Dolby Digital Audio             Spanish         224 kbps        2.0 / 48 kHz / 224 kbps / DN -4dB / Dolby Surround
Dolby Digital Audio             English         224 kbps        2.0 / 48 kHz / 224 kbps / DN -4dB
Dolby Digital Audio             Ukrainian       192 kbps        2.0 / 48 kHz / 192 kbps

SUBTITLES:

Codec                           Language        Bitrate         Description
-----                           --------        -------         -----------
Presentation Graphics           English         0,000 kbps
Presentation Graphics           Dutch           0,000 kbps
Presentation Graphics           French          0,000 kbps
Presentation Graphics           German          0,000 kbps
Presentation Graphics           Spanish         0,000 kbps
Presentation Graphics           Spanish         0,000 kbps

FILES:

Name            Time In         Length          Size            Total Bitrate
----            -------         ------          ----            -------------
00002.M2TS      0:00:00.000     0:42:43.554     0               0

CHAPTERS:

Number          Time In         Length          Avg Video Rate  Max 1-Sec Rate  Max 1-Sec Time  Max 5-Sec Rate  Max 5-Sec Time  Max 10Sec Rate  Max 10Sec Time  Avg Frame Size  Max Frame Size  Max Frame Time
------          -------         ------          --------------  --------------  --------------  --------------  --------------  --------------  --------------  --------------  --------------  --------------
1               0:00:00.000     0:05:54.729     0 kbps          0 kbps          00:00:00.000    0 kbps          00:00:00.000    0 kbps          00:00:00.000    0 bytes         0 bytes         00:00:00.000
2               0:05:54.729     0:00:52.093     0 kbps          0 kbps          00:00:00.000    0 kbps          00:00:00.000    0 kbps          00:00:00.000    0 bytes         0 bytes         00:00:00.000
3               0:06:46.823     0:05:30.996     0 kbps          0 kbps          00:00:00.000    0 kbps          00:00:00.000    0 kbps          00:00:00.000    0 bytes         0 bytes         00:00:00.000
4               0:12:17.819     0:05:16.732     0 kbps          0 kbps          00:00:00.000    0 kbps          00:00:00.000    0 kbps          00:00:00.000    0 bytes         0 bytes         00:00:00.000
5               0:17:34.552     0:02:33.653     0 kbps          0 kbps          00:00:00.000    0 kbps          00:00:00.000    0 kbps          00:00:00.000    0 bytes         0 bytes         00:00:00.000
6               0:20:08.205     0:05:49.850     0 kbps          0 kbps          00:00:00.000    0 kbps          00:00:00.000    0 kbps          00:00:00.000    0 bytes         0 bytes         00:00:00.000
7               0:25:58.056     0:02:15.427     0 kbps          0 kbps          00:00:00.000    0 kbps          00:00:00.000    0 kbps          00:00:00.000    0 bytes         0 bytes         00:00:00.000
8               0:28:13.483     0:03:42.221     0 kbps          0 kbps          00:00:00.000    0 kbps          00:00:00.000    0 kbps          00:00:00.000    0 bytes         0 bytes         00:00:00.000
9               0:31:55.705     0:04:17.883     0 kbps          0 kbps          00:00:00.000    0 kbps          00:00:00.000    0 kbps          00:00:00.000    0 bytes         0 bytes         00:00:00.000
10              0:36:13.588     0:03:22.451     0 kbps          0 kbps          00:00:00.000    0 kbps          00:00:00.000    0 kbps          00:00:00.000    0 bytes         0 bytes         00:00:00.000
11              0:39:36.040     0:02:25.228     0 kbps          0 kbps          00:00:00.000    0 kbps          00:00:00.000    0 kbps          00:00:00.000    0 bytes         0 bytes         00:00:00.000
12              0:42:01.268     0:00:42.286     0 kbps          0 kbps          00:00:00.000    0 kbps          00:00:00.000    0 kbps          00:00:00.000    0 bytes         0 bytes         00:00:00.000

STREAM DIAGNOSTICS:

File            PID             Type            Codec           Language                Seconds                 Bitrate                 Bytes           Packets
----            ---             ----            -----           --------                --------------          --------------          -------------   -----
00002.M2TS      4113 (0x1011)   0x1B            AVC                                     0                       0                       0               0
00002.M2TS      4352 (0x1100)   0x86            -HD MA       eng (English)           0                       0                       0               0
00002.M2TS      4353 (0x1101)   0x82                         deu (German)            0                       0                       0               0
00002.M2TS      4354 (0x1102)   0x81                         fra (French)            0                       0                       0               0
00002.M2TS      4355 (0x1103)   0x81                         spa (Spanish)           0                       0                       0               0
00002.M2TS      4356 (0x1104)   0x81                         eng (English)           0                       0                       0               0
00002.M2TS      4357 (0x1105)   0x81                         ukr (Ukrainian)         0                       0                       0               0
00002.M2TS      4608 (0x1200)   0x90            PGS             eng (English)           0                       0                       0               0
00002.M2TS      4609 (0x1201)   0x90            PGS             nld (Dutch)             0                       0                       0               0
00002.M2TS      4610 (0x1202)   0x90            PGS             fra (French)            0                       0                       0               0
00002.M2TS      4611 (0x1203)   0x90            PGS             deu (German)            0                       0                       0               0
00002.M2TS      4612 (0x1204)   0x90            PGS             spa (Spanish)           0                       0                       0               0
00002.M2TS      4613 (0x1205)   0x90            PGS             spa (Spanish)           0                       0                       0               0


<---- END FORUMS PASTE ---->

QUICK SUMMARY:

Disc Title: Disc 1
Disc Size: 47 248 160 184 bytes
Protection: AACS
BD-Java: Yes
Playlist: 00002.MPLS
Size: 0 bytes
Length: 0:42:43.554
Total Bitrate: 0,00 Mbps
Video: MPEG-4 AVC Video / 0 kbps / 1080p / 23,976 fps / 16:9 / High Profile 4.1
Audio: English / -HD Master Audio / 5.1 / 48 kHz / 24-bit ( Core: 5.1 / 48 kHz / 1509 kbps / 24-bit)
Audio: German / Audio / 5.1 / 48 kHz / 768 kbps / 16-bit
Audio: French / Dolby Digital Audio / 2.0 / 48 kHz / 224 kbps / DN -4dB / Dolby Surround
Audio: Spanish / Dolby Digital Audio / 2.0 / 48 kHz / 224 kbps / DN -4dB / Dolby Surround
Audio: English / Dolby Digital Audio / 2.0 / 48 kHz / 224 kbps / DN -4dB
Audio: Ukrainian / Dolby Digital Audio / 2.0 / 48 kHz / 192 kbps
Subtitle: English / 0,000 kbps
Subtitle: Dutch / 0,000 kbps
Subtitle: French / 0,000 kbps
Subtitle: German / 0,000 kbps
Subtitle: Spanish / 0,000 kbps
Subtitle: Spanish / 0,000 kbps

********************
PLAYLIST: 00006.MPLS
********************

<--- BEGIN FORUMS PASTE --->
Код:

                                                                                                                Total   Video
Title                                                           Codec   Length  Movie Size      Disc Size       Bitrate Bitrate Main Audio Track                          Secondary Audio Track
-----                                                           ------  ------- --------------  --------------  ------- ------- ------------------                        ---------------------
00006.MPLS                                                      AVC     0:28:39 0               47 248 160 184  0,00    0,00    DD 2.0 224Kbps


Код:


DISC INFO:

Disc Title:     Disc 1
Disc Size:      47 248 160 184 bytes
Protection:     AACS
BD-Java:        Yes
BDInfo:         0.5.8

PLAYLIST REPORT:

Name:                   00006.MPLS
Length:                 0:28:39.984 (h:m:s.ms)
Size:                   0 bytes
Total Bitrate:          0,00 Mbps

VIDEO:

Codec                   Bitrate             Description
-----                   -------             -----------
MPEG-4 AVC Video        0 kbps              480i / 29,970 fps / 4:3 / High Profile 3.2

AUDIO:

Codec                           Language        Bitrate         Description
-----                           --------        -------         -----------
Dolby Digital Audio             English         224 kbps        2.0 / 48 kHz / 224 kbps / DN -4dB

FILES:

Name            Time In         Length          Size            Total Bitrate
----            -------         ------          ----            -------------
00007.M2TS      0:00:00.000     0:28:38.983     0               0
00008.M2TS      0:28:38.983     0:00:01.000     0               0

CHAPTERS:

Number          Time In         Length          Avg Video Rate  Max 1-Sec Rate  Max 1-Sec Time  Max 5-Sec Rate  Max 5-Sec Time  Max 10Sec Rate  Max 10Sec Time  Avg Frame Size  Max Frame Size  Max Frame Time
------          -------         ------          --------------  --------------  --------------  --------------  --------------  --------------  --------------  --------------  --------------  --------------
1               0:00:00.000     0:28:38.983     0 kbps          0 kbps          00:00:00.000    0 kbps          00:00:00.000    0 kbps          00:00:00.000    0 bytes         0 bytes         00:00:00.000
2               0:28:38.983     0:00:01.000     0 kbps          0 kbps          00:00:00.000    0 kbps          00:00:00.000    0 kbps          00:00:00.000    0 bytes         0 bytes         00:00:00.000

STREAM DIAGNOSTICS:

File            PID             Type            Codec           Language                Seconds                 Bitrate                 Bytes           Packets
----            ---             ----            -----           --------                --------------          --------------          -------------   -----
00007.M2TS      4113 (0x1011)   0x1B            AVC                                     0                       0                       0               0
00007.M2TS      4352 (0x1100)   0x81                         eng (English)           0                       0                       0               0
00008.M2TS      4113 (0x1011)   0x1B            AVC                                     0                       0                       0               0


<---- END FORUMS PASTE ---->

QUICK SUMMARY:

Disc Title: Disc 1
Disc Size: 47 248 160 184 bytes
Protection: AACS
BD-Java: Yes
Playlist: 00006.MPLS
Size: 0 bytes
Length: 0:28:39.984
Total Bitrate: 0,00 Mbps
Video: MPEG-4 AVC Video / 0 kbps / 480i / 29,970 fps / 4:3 / High Profile 3.2
Audio: English / Dolby Digital Audio / 2.0 / 48 kHz / 224 kbps / DN -4dB

********************
PLAYLIST: 00008.MPLS
********************

<--- BEGIN FORUMS PASTE --->
Код:

                                                                                                                Total   Video
Title                                                           Codec   Length  Movie Size      Disc Size       Bitrate Bitrate Main Audio Track                          Secondary Audio Track
-----                                                           ------  ------- --------------  --------------  ------- ------- ------------------                        ---------------------
00008.MPLS                                                      AVC     0:02:29 0               47 248 160 184  0,00    0,00    DD 2.0 224Kbps


Код:


DISC INFO:

Disc Title:     Disc 1
Disc Size:      47 248 160 184 bytes
Protection:     AACS
BD-Java:        Yes
BDInfo:         0.5.8

PLAYLIST REPORT:

Name:                   00008.MPLS
Length:                 0:02:29.149 (h:m:s.ms)
Size:                   0 bytes
Total Bitrate:          0,00 Mbps

VIDEO:

Codec                   Bitrate             Description
-----                   -------             -----------
MPEG-4 AVC Video        0 kbps              1080p / 23,976 fps / 16:9 / High Profile 4.1

AUDIO:

Codec                           Language        Bitrate         Description
-----                           --------        -------         -----------
Dolby Digital Audio             English         224 kbps        2.0 / 48 kHz / 224 kbps / DN -4dB

FILES:

Name            Time In         Length          Size            Total Bitrate
----            -------         ------          ----            -------------
00011.M2TS      0:00:00.000     0:02:29.149     0               0

CHAPTERS:

Number          Time In         Length          Avg Video Rate  Max 1-Sec Rate  Max 1-Sec Time  Max 5-Sec Rate  Max 5-Sec Time  Max 10Sec Rate  Max 10Sec Time  Avg Frame Size  Max Frame Size  Max Frame Time
------          -------         ------          --------------  --------------  --------------  --------------  --------------  --------------  --------------  --------------  --------------  --------------
1               0:00:00.000     0:02:28.148     0 kbps          0 kbps          00:00:00.000    0 kbps          00:00:00.000    0 kbps          00:00:00.000    0 bytes         0 bytes         00:00:00.000
2               0:02:28.148     0:00:01.001     0 kbps          0 kbps          00:00:00.000    0 kbps          00:00:00.000    0 kbps          00:00:00.000    0 bytes         0 bytes         00:00:00.000

STREAM DIAGNOSTICS:

File            PID             Type            Codec           Language                Seconds                 Bitrate                 Bytes           Packets
----            ---             ----            -----           --------                --------------          --------------          -------------   -----
00011.M2TS      4113 (0x1011)   0x1B            AVC                                     0                       0                       0               0
00011.M2TS      4352 (0x1100)   0x81                         eng (English)           0                       0                       0               0


<---- END FORUMS PASTE ---->

QUICK SUMMARY:

Disc Title: Disc 1
Disc Size: 47 248 160 184 bytes
Protection: AACS
BD-Java: Yes
Playlist: 00008.MPLS
Size: 0 bytes
Length: 0:02:29.149
Total Bitrate: 0,00 Mbps
Video: MPEG-4 AVC Video / 0 kbps / 1080p / 23,976 fps / 16:9 / High Profile 4.1
Audio: English / Dolby Digital Audio / 2.0 / 48 kHz / 224 kbps / DN -4dB
Скріншоти

Корректування синхронізації звуку, реавторінг Blu-Ray: abodnya. Постер: Gelios
Реліз зроблено на замовлення Вінського Ігоря!


Джерело:
Особиста оцінка: 0 - не дивився


Золотий реліз (завантажене не впливає на рейтинг)
 Трекер:    Зареєстрований   

Завантажити / скачати серіал українською



відео для новачків



 Зареєстрований:   2013-03-18 23:22
 Розмір:   132.73 GB 
 Оцінка серіалу:   10/10 (Голосів: 35)
   
ratbol 
Модератор HD


З нами з: 03.02.09
Востаннє: 13.08.19
Повідомлень: 1076

2013-03-17 13:53  
Все дуже добре, але:
abodnya написано:

Аудіо # 2: мова: німецька переклад: професійний дубльований кодек: 5.1 бітрейт: 768 кб/с
Аудіо # 3: мова: французька переклад: професійний дубльований кодек: 2.0 бітрейт: 224 кб/с
Аудіо # 4: мова: іспанська переклад: професійний дубльований кодек: 2.0 бітрейт: 224 кб/с

Дозволені тільки у оригінальних блюреях.
І про стандартний шаблон оформлення забули.

abodnya 
Відео Гуртом - фільмокрай
Відео Гуртом - фільмокрай


З нами з: 02.11.08
Востаннє: 01.08.19
Повідомлень: 5930

2013-03-17 14:19  
ratbol написано:
Дозволені тільки у оригінальних блюреях.

Інакше меню вибору доріжок в BluRay працювати не буде.
ratbol написано:
І про стандартний шаблон оформлення забули.

Ти про те, що зніс в один рядок всю інформацію про аудіо/відео/саби? Це щоб інформація була читабельною

ratbol 
Модератор HD


З нами з: 03.02.09
Востаннє: 13.08.19
Повідомлень: 1076

2013-03-17 17:41  
abodnya написано:
Інакше меню вибору доріжок в BluRay працювати не буде.

Ну я не спец у реавторингу, а чому це меню мало би не працювати? Прибрати що не треба, тай все. Мені здається важче додавати щось нове, а не видалити пару доріжок і написи.
abodnya написано:
Ти про те, що зніс в один рядок всю інформацію про аудіо/відео/саби? Це щоб інформація була читабельною

Нормально вона читабельна при стандартному шаблоні.

abodnya 
Відео Гуртом - фільмокрай
Відео Гуртом - фільмокрай


З нами з: 02.11.08
Востаннє: 01.08.19
Повідомлень: 5930

2013-03-17 17:44  
ratbol написано:
Ну я не спец у реавторингу, а чому це меню мало би не працювати? Прибрати що не треба, тай все. Мені здається важче додавати щось нове, а не видалити пару доріжок і написи.

В меню є кнопки вибору доріжки. От натискаєш ти на кнопку "іспанська" і якщо її немає, твій диск вибиває помилку. Кому потрібен диск на 45 гб, який працює несправно?

ratbol написано:
Нормально вона читабельна при стандартному шаблоні.

вона так займає забагато простору в висоту. В стислому вигляді більше інформації вміщується на екрані, через що користувачу не треба мотати сторінку вгору-вниз.

NeetScrool 
Відео Гуртом - фільмокрай
Відео Гуртом - фільмокрай


З нами з: 10.01.13
Востаннє: 17.08.19
Повідомлень: 2984

2013-03-17 20:01  
abodnya
Істину говориш

BOOGud 
VIP


З нами з: 06.03.12
Востаннє: 30.07.19
Повідомлень: 905

2013-03-17 20:36  
abodnya написано:
вона так займає забагато простору в висоту. В стислому вигляді більше інформації вміщується на екрані, через що користувачу не треба мотати сторінку вгору-вниз.


підтримую, набагато зручніше

pseudogiant 
VIP


З нами з: 24.08.12
Востаннє: 17.08.19
Повідомлень: 902

2013-03-19 16:59  
Нічого собі розмір!
abodnya 
Відео Гуртом - фільмокрай
Відео Гуртом - фільмокрай


З нами з: 02.11.08
Востаннє: 01.08.19
Повідомлень: 5930

2013-03-19 17:52  
pseudogiant
Нормальний розмір як для трьох блю-рей дисків

pseudogiant 
VIP


З нами з: 24.08.12
Востаннє: 17.08.19
Повідомлень: 902

2013-03-20 08:57  
Так, я просто вперше зіткнувся з блю-реєм у всій його суворій красі. Досі перебивався на ріпах і збираюся надалі це робити. Технічні можливості не дозволяють вантажити такі об’єми.
Tenax555 
Свій


З нами з: 26.08.09
Востаннє: 27.07.19
Повідомлень: 98

2013-03-22 20:54  
Дякую автору, та власнику BD.
Подивимось чи зможу зробити ріпи, кращі, ніж є в мережі.

Ігор Вінський 
VIP


З нами з: 17.03.11
Востаннє: 18.08.19
Повідомлень: 417

2013-03-22 22:16  
Ви б ліпше не множили ріпи, яких й так "добіса" а самі б кілька серіалів у жанрі фантастики у БД зарелізили. Ріп то не оригінал. Краще дивитися оригінальне відео ніж казна-що.
Tenax555 
Свій


З нами з: 26.08.09
Востаннє: 27.07.19
Повідомлень: 98

2013-03-22 23:20  
Ну ріпів "FireFly" гуляє зовсім не "добіса", а усьго два, і обидва мене не влаштовують...От гляну на ці диски, яка там якість...коли докачаю звичайно -)
wolverine-7 
Свій


З нами з: 26.08.12
Востаннє: 19.07.18
Повідомлень: 126

2013-03-23 00:38  
Цей серiал гарний або немає?

Свiтляк як Андромеда або як зоряний шлях ?

Пане Iгоре,якщо ви не любите рiпи,ви можете скачати DVD9 з bithq.

Я вважаю що це звичайний серiал про космiчнi пригоди. Можливо якiсть на BR дуже гарне але я не буду завантажувати цей формат.

Tenax555 
Свій


З нами з: 26.08.09
Востаннє: 27.07.19
Повідомлень: 98

2013-03-23 17:56  
Дороздайте вже, чи як -)
abodnya 
Відео Гуртом - фільмокрай
Відео Гуртом - фільмокрай


З нами з: 02.11.08
Востаннє: 01.08.19
Повідомлень: 5930

2013-03-27 19:43  
роздаю потроху)
pseudogiant 
VIP


З нами з: 24.08.12
Востаннє: 17.08.19
Повідомлень: 902

2013-03-28 22:28  
Tenax555
Цитата:
Подивимось чи зможу зробити ріпи, кращі, ніж є в мережі.

Шановний пане Tenax555, користуючись нагодою, дякую Вам за збірку творів В. Нестайка.
А щодо цього серіалу, то дійсно подивіться, бо якість ріпів, які є на трекері, залишають бажати кращого.

NeetScrool 
Відео Гуртом - фільмокрай
Відео Гуртом - фільмокрай


З нами з: 10.01.13
Востаннє: 17.08.19
Повідомлень: 2984

2013-03-28 22:39  
wolverine-7 написано:
Можливо якiсть на BR дуже гарне

Як на мене, забагато штучного шуму.

abodnya 
Відео Гуртом - фільмокрай
Відео Гуртом - фільмокрай


З нами з: 02.11.08
Востаннє: 01.08.19
Повідомлень: 5930

2013-04-04 17:03  
Фух, нарешті я його роздав =)
-Roman- 
Свій


З нами з: 23.01.09
Востаннє: 17.08.19
Повідомлень: 124

2013-05-08 12:20  
вінськийігор

Дякую Вам та abodnya за реліз.

Можна таке питання: Ви будете зберігати цей серіал у себе ?
А то я хочу подивитися його, але це буде ой як не скоро (поки не нашкребу кошти на нормальний домашній кінотеатр на основі проектору або в крайньому випадку 60" жк, на моніторі фільми перестав дивитися уже мабудь років зо три назад ).

Якщо будете зберігати, то вантажити зараз не буду, так як вільне місце хоч і є, але воно не ризинове.

pseudogiant 
VIP


З нами з: 24.08.12
Востаннє: 17.08.19
Повідомлень: 902

2013-05-09 14:19  
Серіал не сподобався. Довго його тримав, сподівався подивитись, але подивився хвилин 20 і видалив. Не моє.
-Roman- написано:
так як вільне місце хоч і є, але воно не ризинове

Мабуть Ви хотіли сказати, що воно (місце) не гумове.

-Roman- 
Свій


З нами з: 23.01.09
Востаннє: 17.08.19
Повідомлень: 124

2013-05-09 15:57  
pseudogiant

Wide grin

А взагалі саме так, не гумове =)

Ігор Вінський 
VIP


З нами з: 17.03.11
Востаннє: 18.08.19
Повідомлень: 417

2013-06-04 23:13  
Трохи пізно, але відповім; Так, серіал збережу, проте може диск зламатися, але сподіваюся що не один буду роздавати і Вам вдасться завантажити.
-Roman- 
Свій


З нами з: 23.01.09
Востаннє: 17.08.19
Повідомлень: 124

2013-06-04 23:17  
вінськийігор

Дякую, що відповіли.

demotyvator 
Частий відвідувач


З нами з: 24.02.12
Востаннє: 25.04.19
Повідомлень: 39

2014-04-13 17:32  
Хто ще має цей серіал, будь-ласка, поставте на роздачу. Дякую.
Araventra 
Новенький


З нами з: 26.01.12
Востаннє: 14.08.19
Повідомлень: 12

2015-04-03 01:44  
Якщо в когось є серіал, то будь ласка, станьте на роздачу.
Дуже хочеться в цій якості, для сімейного перегляду.

hattabych74 
Новенький


З нами з: 26.04.12
Востаннє: 11.06.19
Повідомлень: 5

2015-09-04 09:49  
Всім Доброго дня!
Хто небудь стане на роздачу? Чекаю.

Dorian|Gray 
Новенький


З нами з: 17.07.15
Востаннє: 02.08.19
Повідомлень: 2

2015-11-22 09:36  
сіди, поверніться будь ласка ...
і, якщо можливо, дайте будь ласка швидкості...

Ваш часовий пояс: GMT + 2 Години

Нова тема   Відповісти