Східний едем / Higashi no Eden / (серії 1-11 з 11 END) (2009) 720p UKR

Нові коментарі

Нова тема   Відповісти
Автор Повідомлення
ihabi 
Поважний учасник


З нами з: 01.03.13
Востаннє: 07.08.17
Повідомлень: 247

2013-03-11 00:07  
Східний едем / Higashi no Eden / (серії 1-11 з 11 END) (2009) 720p UKR

Східний едем / Higashi no Eden / (серії 1-11 з 11 END) (2009) 720p UKR


Жанр: детектив, пригоди, романтика
Країна: Японія



8.08 (4633 голосів)

Кіностудія / кінокомпанія: Production I.G
Режисер: Каміяма Кенджі
Ролі озвучують: Хаямі Саорі, Кумура Рьохей, Кавахара Мотоюкі, Тамагава Сакіко

Сюжет:
Японка Морімі Сакі після закінчення навчання вирушає у подорож до США. Вона їде до Вашингтону, щоб побачити Білий Дім і, кинувши монетку у тамтешній фонтан, загадати бажання. Однак, потрапляє у халепу з якої її витягує співвітчизник Такізава Акіра , хлопець, що з'являється невідомо звідки абсолютно голим, з револьвером і мобільним телефоном у руках. Він повна загадка, як для Сакі, так і для себе самого, адже втратив пам’ять. За допомогою телефону, Такізава з'ясовує, що він мільярдер та адресу буцімто свого будинку. Але прийшовши туди, виявляє, що квартира набита зброєю, вибухівкою та купою підроблених документів з його фотографією. Він приймає рішення повернутися в Японію разом с Сакі, щоб розкрити таємницю свого минулого. А Сакі вирішує йому допомогти, бо ж вона, здається, зустріла свого принца.


Тривалість: 1 серія: 22:55 (цілком серій: 11)
Перелік серій
Епізод 1 - Як я зустрілася зі своїм принцем
Епізод 2 - Сумний понеділок
Епізод 3 - Під час нічного сеансу
Епізод 4 - Спавжня реальність, уявна реальність
Епізод 5 - Я зараз повинна думати про інше
Епізод 6 - На схід від Раю
Епізод 7 - Танці чорного лебедя
Епізод 8 - У пошуках голки в стозі сіна
Епізод 9 - Людина, яка померла надто молодою
Епізод 10 - Хто вбив Такізаву Акіру?
Епізод 11 - Едем продовжується
Якість:
Відео:
кодек:
розмір кадру: 1280 х 720
бітрейт: 2 083 кб/с

Аудіо:
мова: українська
переклад: багатоголосий закадровий
кодек: MP3
бітрейт: 192 кб/с
Info

Video
ID : 0
Format : MPEG-4 Visual
Format profile : Advanced [email protected]
Format settings, BVOP : 2
Format settings, QPel : No
Format settings, GMC : No warppoints
Format settings, Matrix : Default (H.263)
Codec ID :
Codec ID/Hint :
Duration : 22mn 55s
Bit rate : 2 083 Kbps
Width : 1 280 pixels
Height : 720 pixels
Display aspect ratio : 16:9
Frame rate : 25.000 fps
Color space : YUV
Chroma subsampling : 4:2:0
Bit depth : 8 bits
Scan type : Progressive
Compression mode : Lossy
Bits/(Pixel*Frame) : 0.090
Stream size : 341 MiB (91%)
Writing library : 1.2.1 (UTC 2008-12-04)

Audio
ID : 1
Format : MPEG Audio
Format version : Version 1
Format profile : Layer 3
Mode : Joint stereo
Mode extension : MS Stereo
Codec ID : 55
Codec ID/Hint : MP3
Duration : 22mn 54s
Bit rate mode : Constant
Bit rate : 192 Kbps
Channel(s) : 2 channels
Sampling rate : 48.0 KHz
Compression mode : Lossy
Delay relative to video : 40ms
Stream size : 31.5 MiB (8%)
Alignment : Aligned on interleaves
Interleave, duration : 24 ms (0.60 video frame)
Interleave, preload duration : 504 ms
Переклад та озвучення виконано:
Переклад: ihabi
Редагування: Kallaider
Текст читали: Konstantinych(Такізава), Sladkoeshka(Сакі), Zebadiya(Джуіс), Kallaider(Осугі), ihabi(Хірасава) та ін.
Робота зі звуком: Kallaider

Джерело: MelodicVoiceStudio


Скріншоти


Особиста оцінка: 9 - давно не бачив настільки якісне кіно


Золотий реліз (завантажене не впливає на рейтинг)
 Трекер:    Зареєстрований   

Завантажити / скачати аніме українською



відео для новачків



 Зареєстрований:   2013-04-11 20:18
 Розмір:   4.22 GB 
 Оцінка аніме:   9.1/10 (Голосів: 11)
   
NeetScrool 
Відео Гуртом - фільмокрай
Відео Гуртом - фільмокрай


З нами з: 10.01.13
Востаннє: 19.08.17
Повідомлень: 2613

2013-03-11 00:11  
Можна семпл?
Rise 
Модератор розділу аніме


З нами з: 02.11.08
Востаннє: 24.04.17
Повідомлень: 555

2013-03-11 00:12  
Цитата:
Можна семпл?

Я вже вантажу, дуже цікаво послухати.

bills_spirit 
Свій


З нами з: 22.09.09
Востаннє: 20.08.17
Повідомлень: 83

2013-03-11 01:36  
Нарешті!!! То така чудова річ, я й сама раніше саби перекладала, але якось загубився переклад
ihabi 
Поважний учасник


З нами з: 01.03.13
Востаннє: 07.08.17
Повідомлень: 247

2013-03-11 01:49  
bills_spirit
Можете ще чекати два фільми, одразу як закінчимо серіал Wink (2)

Konfucius 
Управління
Управління


З нами з: 30.09.07
Востаннє: 20.08.17
Повідомлень: 4940

2013-03-11 21:38  
Допишіть до назви, добавте звіт Info.
ihabi 
Поважний учасник


З нами з: 01.03.13
Востаннє: 07.08.17
Повідомлень: 247

2013-03-11 22:16  
Konfucius
Зроблено

ihabi 
Поважний учасник


З нами з: 01.03.13
Востаннє: 07.08.17
Повідомлень: 247

2013-03-21 13:01  
Додано 8 серію
ihabi 
Поважний учасник


З нами з: 01.03.13
Востаннє: 07.08.17
Повідомлень: 247

2013-04-04 16:19  
Додано 9 і 10 серію. Фінішна пряма.
ihabi 
Поважний учасник


З нами з: 01.03.13
Востаннє: 07.08.17
Повідомлень: 247

2013-04-11 20:20  
Додана 11 серія. Всім дякую ТВ версію закінчено.
ImfromUkraine 
VIP


З нами з: 18.02.12
Востаннє: 20.08.17
Повідомлень: 289

2013-04-11 21:59  
вау, фінал) дякую)
eXteSy- 
VIP


З нами з: 06.04.09
Востаннє: 19.08.17
Повідомлень: 1591

2013-04-11 23:52  
Мені аніме сподобалося. Однак воно досить специфічне і комусь радити до перегляду чи застерігати від нього - марна справа. Краще переглянути першу серію і самим зробити висновки, оскільки в такій же стилістиці подачі матеріалу будуть і наступні серії.
7/10

ihabi 
Поважний учасник


З нами з: 01.03.13
Востаннє: 07.08.17
Повідомлень: 247

2013-06-01 14:05  
Запрошую до перегляду першого фільму за посиланням зверху.
TeronUA 
VIP


З нами з: 13.02.09
Востаннє: 19.08.17
Повідомлень: 283

2013-07-17 19:36  
Завантажую!Happy)))
Дякую за прекрасне аніме!Happy

мамбо 
Поважний учасник


З нами з: 23.12.11
Востаннє: 19.08.17
Повідомлень: 217

2013-10-15 18:31  
Дуже сподобалось дане аніме, а фільми підвели =(
bogdan8249 
Відео Гуртом - фільмокрай
Відео Гуртом - фільмокрай


З нами з: 09.08.08
Востаннє: 19.08.17
Повідомлень: 1157

2014-10-01 09:42  
Шановні Модератори. Реліз же має бути "Авторським", а не золотим.
EvGaS 
Відео Гуртом - підтримка та поширення
Відео Гуртом - підтримка та поширення


З нами з: 27.02.12
Востаннє: 20.08.17
Повідомлень: 3332

2015-07-20 11:56  
Якесь в мене відчуття дежа вю: бачив колись повнометражний аніфільм на таку ж тематику...
Ага, це одне з продовжень-повнометражок до серіалу))

Про серіал - легкий, жартівливий, герої постійно відкидають приколи (гумор легкий, але жарти частенько тонкі, не пласкі), хоча події у світі навколо не такі вже й безтурботні.
Та й музика від Оазиса порадувала. Та й взагалі муз. супровід. Мальовка - наче нічого не побачив визначного - не дратує, але ніяких особливостей теж, стандартна масова анімешна.

Одже, якщо хтось шукає щось легке про шпигунські пристрасті - вперед.

EvGaS 
Відео Гуртом - підтримка та поширення
Відео Гуртом - підтримка та поширення


З нами з: 27.02.12
Востаннє: 20.08.17
Повідомлень: 3332

2015-07-21 10:10  
Фінал непоганий, але без фільмів лишаються питання.

Та й є одне, що до мене не дійшло, й не складається навіть після фільмів:
Садистка-чоловіконенависниця то показана м'ясником, а потім виявляється тим ще комбінатором щоб розвести 9-го. Потім ще й через дзвінок використовує телекінез, вирощує крила й летить. Ну добре, тіло ще на непомітних підвісах можна рухати в напівтемряві, ну можна ще придумати як розбити скло й полетіти підвішеною до гвинтокрила. Але як викликати зорові глюки з крилами у дівчини? мде... Повний секрет... Ну, будемо вважати що то і справді якийсь янгол, її, доречі, так і назвав комп'ютер)))

Ваш часовий пояс: GMT + 2 Години

Нова тема   Відповісти