Співучасник / Collateral (2004) 1080p Ukr/Eng | Sub Eng

Нові коментарі

Нова тема   Відповісти
Автор Повідомлення
Anonymous 







2013-03-04 12:54  
Співучасник / Collateral (2004) 1080p Ukr/Eng | Sub Eng

Співучасник / Collateral (2004) 1080p Ukr/Eng | Sub Eng


Жанр: трилер, драма, кримінальний
Країна: США



Кіностудія / кінокомпанія: Paramount Pictures
Режисер: Майкл Манн / Michael Mann
Актори: Том Круз / Tom Cruise, Джеймі Фокс / Jamie Foxx, Джада Пінкетт Сміт / Jada Pinkett Smith, Марк Руффало / Mark Ruffalo, Пітер Берг / Peter Berg, Брюс МакГілл / Bruce McGill, Ірма П. Холл / Irma P. Hall, Баррі Шабака Хенлі / Barry Shabaka Henley, Річард Т. Джонс / Richard T. Jones, Клея Скотт / Klea Scott, Бодхі Ельфман / Bodhi Elfman, Дебі Мазар / Debi Mazar, Хав'єр Бардем / Javier Bardem, Еміліо Рівера / Emilio Rivera, Джеймі МакБрайд / Jamie McBride

Сюжет:
Для таксиста Макса звичайний робочий вечір розпочавcя радісним знайомством з красунею, а закінчивcя справжнім жахіттям. До нього підсів дивний, мовчазний чоловік, який запропонував за 600 доларів звозити його по п'яти різним адресам. Коли ж Макс дізнався, що похмурий Вінсент – найманий вбивця, який виконує замовлення по всьому місту, і ставши свідком першого злочину, то він на свій страх і ризик намагається не допустити нові убивства і вступає з кілером у небезпечну гру...


рейтинг MPAA: R - дітям до 17 років обов'язкова присутність батьків або дорослого опікуна
Вікова категорія: 16+

Тривалість: 01:59:56
Якість: 1080p

Відео:
кодек:
розмір кадру: 1920x800
бітрейт: 8594 кб/с

Аудіо # 1:
мова: українська
переклад: багатоголосий закадровий | Так Треба Продакшн
кодек: 5.1
бітрейт: 448 кб/с

Аудіо # 2:
мова: англійська
переклад: оригінал
кодек: 5.1
бітрейт: 448 кб/с

Субтитри:
мова: англійська
тип: програмні (м'які)
формат: *.

Збережено оригінальні розділи, як на Blu-ray
Info
Код:

Complete name                            : Collateral.2004.1080р.Ukr.Eng.
Format                                   :
Format version                           : Version 4 / Version 2
File size                                : 7.94 GiB
Duration                                 : 1h 59mn
Overall bit rate                         : 9 483 Kbps
Movie name                               : Співучасник / Collateral (2004)
Encoded date                             : UTC 2013-02-28 15:03:46
Writing application                      : v6.0.0 ('Coming Up For Air') built on Jan 20 2013 09:52:00
Writing library                          : libebml v1.3.0 + v1.4.0

Video
ID                                       : 1
Format                                   : AVC
Format/Info                              : Advanced Video Codec
Format profile                           : [email protected]
Format settings, CABAC                   : Yes
Format settings, ReFrames                : 5 frames
Codec ID                                 : V_MPEG4/ISO/AVC
Duration                                 : 1h 59mn
Bit rate                                 : 8 594 Kbps
Width                                    : 1 920 pixels
Height                                   : 800 pixels
Display aspect ratio                     : 2.40:1
Frame rate mode                          : Constant
Frame rate                               : 23.976 fps
Color space                              : YUV
Chroma subsampling                       : 4:2:0
Bit depth                                : 8 bits
Scan type                                : Progressive
Bits/(Pixel*Frame)                       : 0.233
Stream size                              : 7.04 GiB (89%)
Title                                    : rip by delia [Freeisland]
Writing library                          : core 129 r2245kMod bc13772
Encoding settings                        : cabac=1 / ref=5 / deblock=1:-3:-3 / analyse=0x3:0x113 / me=umh / subme=10 / psy=1 / fade_compensate=0.00 / psy_rd=1.00:0.25 / mixed_ref=1 / me_range=48 / chroma_me=1 / trellis=2 / 8x8dct=1 / cqm=0 / deadzone=6,6 / fast_pskip=0 / chroma_qp_offset=-4 / threads=6 / lookahead_threads=1 / sliced_threads=0 / nr=0 / decimate=0 / interlaced=0 / bluray_compat=0 / constrained_intra=0 / bframes=8 / b_pyramid=2 / b_adapt=2 / b_bias=0 / direct=3 / weightb=1 / open_gop=0 / weightp=2 / keyint=250 / keyint_min=23 / scenecut=40 / intra_refresh=0 / rc=2pass / mbtree=0 / bitrate=8594 / ratetol=1.0 / qcomp=0.80 / qpmin=5 / qpmax=51 / qpstep=4 / cplxblur=20.0 / qblur=0.5 / ip_ratio=1.20 / pb_ratio=1.20 / aq=1:0.50
Language                                 : English
Default                                  : Yes
Forced                                   : No
Matrix coefficients                      : BT.709

Audio #1
ID                                       : 2
Format                                   : AC-3
Format/Info                              : Audio Coding 3
Mode extension                           : CM (complete main)
Format settings, Endianness              : Big
Codec ID                                 : A_AC3
Duration                                 : 1h 59mn
Bit rate mode                            : Constant
Bit rate                                 : 448 Kbps
Channel(s)                               : 6 channels
Channel positions                        : Front: L C R, Side: L R, LFE
Sampling rate                            : 48.0 KHz
Bit depth                                : 16 bits
Compression mode                         : Lossy
Stream size                              : 384 MiB (5%)
Title                                    : MVO [TakTrebaProduction-ICTV] 5.1 448kbps [urij546724, MAKAPOHHIK-HURTOM]
Language                                 : Ukrainian
Default                                  : Yes
Forced                                   : No

Audio #2
ID                                       : 3
Format                                   : AC-3
Format/Info                              : Audio Coding 3
Mode extension                           : CM (complete main)
Format settings, Endianness              : Big
Codec ID                                 : A_AC3
Duration                                 : 1h 59mn
Bit rate mode                            : Constant
Bit rate                                 : 448 Kbps
Channel(s)                               : 6 channels
Channel positions                        : Front: L C R, Side: L R, LFE
Sampling rate                            : 48.0 KHz
Bit depth                                : 16 bits
Compression mode                         : Lossy
Stream size                              : 384 MiB (5%)
Title                                    : original
Language                                 : English
Default                                  : No
Forced                                   : No

Text
ID                                       : 4
Format                                   :
Codec ID                                 : S_TEXT/
Codec ID/Info                            : Advanced Sub Station Alpha
Compression mode                         : Lossless
Title                                    : Eng Full
Language                                 : English
Default                                  : No
Forced                                   : No

Menu
00:00:00.000                             : en:Night Shift
00:13:19.340                             : en:The Passenger
00:17:55.073                             : en:First Target
00:24:21.710                             : en:Max's Panic
00:27:19.429                             : en:Police Traffic Stop
00:29:57.128                             : en:Lenny the Dispatcher
00:33:49.652                             : en:Getting Mugged
00:37:05.723                             : en:Lapd Crime Scene
00:39:29.033                             : en:The Jazzman
00:47:57.666                             : en:Ida in the Hospital
00:54:10.038                             : en:Revelation in the Morgue
00:56:11.826                             : en:To El Rodeo
00:59:01.120                             : en:Felix
01:12:19.001                             : en:Fbi on the Tail
01:16:18.699                             : en:Coyotes in Koreatown
01:18:40.090                             : en:Club Fever
01:25:35.129                             : en:Max Rebels
01:34:46.597                             : en:Last Stop
01:45:06.675                             : en:Murder on the Mta
01:53:06.738                             : en:End Credits


Джерело: &
Ріп відео, оригінальна доріжка та субтитри - delia (FREEISLAND), українська доріжка - urij546724 (синхронізація) та MAKAPOHHIK (запис з ТБ); постер - fazza (всі - Гуртом)


Срібний реліз (на рейтинг впливає 50% завантаженого)
 Трекер:    Зареєстрований   

Завантажити / скачати фільм українською



відео для новачків



 Зареєстрований:   2013-03-04 12:54
 Розмір:   7.94 GB 
 Оцінка фільму:   7.6/10 (Голосів: 38)
   
Інші релізи
   Співучасник / Collateral (2004) Remux 1080p 2xUkr/Eng | Sub Eng/Spa/Por kryk-v.ya.  6 / 0   32.91 GB   2019-04-10 18:38 
   Співучасник / Collateral (2004) 1080p H.265 2xUkr/Eng | Sub Eng -Star-Lord-  3 / 0   4.06 GB   2018-11-16 23:43 
   Співучасник / Collateral (2004) 2xUkr/Eng Gelios  12 / 0   2.18 GB   2015-08-11 20:02 
   Співучасник / Collateral (2004) 720p Ukr/Eng TNT.KOT  1 / 0   6.03 GB   2013-11-28 11:55 
   Співучасник / Collateral (2004) AVC Ukr/Eng | sub Eng aalleexx85  4 / 0   3.21 GB   2012-01-06 20:29 
Anonymous 







2013-03-04 13:07  
НЕ ТІКАЙТЕ З РОЗДАЧІ!
СКАЧАВ САМ - ДАЙ СКАЧАТИ ІНШИМ

harmonic 
Частий відвідувач


З нами з: 01.01.11
Востаннє: 20.04.19
Повідомлень: 32

2013-03-05 15:34  
Чудовий фільм, вартий перегляду! 10 з 10
rocker007 
Новенький


З нами з: 13.03.12
Востаннє: 23.04.19
Повідомлень: 2

2014-12-19 23:54  
фільм класний
Ваш часовий пояс: GMT + 2 Години

Нова тема   Відповісти