LIVIN - Дом [EP] (2013) [FLAC] | Electronic

Нові коментарі

Нова тема   Відповісти
Останній раз роздавалося e89af1d898 (2016-03-11)
Автор Повідомлення
muhomor 
VIP


З нами з: 04.12.11
Востаннє: 01.06.17
Повідомлень: 297

2013-03-04 08:49  
LIVIN - Дом [EP] (2013) [FLAC] | Electronic

LIVIN - Дом [EP] (2013) [FLAC] | Electronic


Стиль: 8-bit, Indielectronic
Країна, місто: Україна, Київ
Видавець: UA Undeground
Виконавці:
Богдан Magenta - вокал, музика, тексти
Пісні:
    01. Rush 37
    02. Нет Рядом Меня
    03. 0010011
    04. Wordless
    05. Продолжаем Танцювать
    06. Home
    Audiochecker


    AUDIOCHECKER v2.0 beta (build 457) - by Dester - [email protected]
    ~~~~~~~~~~~~~~~~~~~~~~~~~~~~~~~~~~

    Started at: понедельник, 04. 03. 2013. - 7:44.04
    6 files found

    1 -===- D:\hurtom.com\LIVIN - «Дом» [EP] (2013) (FLAC)\01 LIVIN Rush 37.flac
    Extracted successfully
    Conclusion: this track is MPEG with probability 95%
    Tempfile successfully deleted.

    2 -===- D:\hurtom.com\LIVIN - «Дом» [EP] (2013) (FLAC)\02 LIVIN Нет Рядом Меня.flac
    Extracted successfully
    Conclusion: this track is MPEG with probability 95%
    Tempfile successfully deleted.

    3 -===- D:\hurtom.com\LIVIN - «Дом» [EP] (2013) (FLAC)\03 LIVIN 0010011.flac
    Extracted successfully
    Conclusion: this track is MPEG with probability 95%
    Tempfile successfully deleted.

    4 -===- D:\hurtom.com\LIVIN - «Дом» [EP] (2013) (FLAC)\04 LIVIN Wordless.flac
    Extracted successfully
    Conclusion: this track is MPEG with probability 95%
    Tempfile successfully deleted.

    5 -===- D:\hurtom.com\LIVIN - «Дом» [EP] (2013) (FLAC)\05 LIVIN Продолжаем Танцювать.flac
    Extracted successfully
    Conclusion: this track is MPEG with probability 95%
    Tempfile successfully deleted.

    6 -===- D:\hurtom.com\LIVIN - «Дом» [EP] (2013) (FLAC)\06 LIVIN Home.flac
    Extracted successfully
    Conclusion: this track is MPEG with probability 95%
    Tempfile successfully deleted.

    Finished at: понедельник, 04. 03. 2013. - 7:45.35 (operation time: 0:01.31)
    Log

    Exact Audio Copy V1.0 beta 3 from 29. August 2011

    Отчёт EAC об извлечении, выполненном 4. марта 2013, 6:55

    LIVIN / Дом [EP]

    Дисковод: ASUS DRW-2014S1T Adapter: 2 ID: 8

    Режим чтения : Достоверность
    Использование точного потока : Да
    Отключение кэша аудио : Да
    Использование указателей C2 : Нет

    Коррекция смещения при чтении : 6
    Способность читать области Lead-in и Lead-out : Нет
    Заполнение пропущенных сэмплов тишиной : Да
    Удаление блоков с тишиной в начале и конце : Нет
    При вычислениях CRC использовались нулевые сэмплы : Да
    Интерфейс : Встроенный Win32-интерфейс для Win NT/2000
    Обработка зазоров : Добавлено к предыдущему треку

    Выходной формат : Пользовательский кодировщик
    Выбранный битрейт : 128 kBit/s
    Качество : Высокий
    Добавление ID3-тега : Нет
    Утилита сжатия : C:\Program Files\Exact Audio Copy\Flac\flac.exe
    Дополнительные параметры : -V -8 -T "Genre=%genre%" -T "Artist=%artist%" -T "Title=%title%" -T "Album=%albumtitle%" -T "Date=%year%" -T "Tracknumber=%tracknr%" -T "Comment=%comment%" %source%

    TOC извлечённого CD

    Трек | Старт | Длительность | Начальный сектор | Конечный сектор
    ---------------------------------------------------------------------
    1 | 0:00.00 | 4:38.28 | 0 | 20877
    2 | 4:38.28 | 3:07.17 | 20878 | 34919
    3 | 7:45.45 | 2:15.04 | 34920 | 45048
    4 | 10:00.49 | 4:37.26 | 45049 | 65849
    5 | 14:38.00 | 3:57.33 | 65850 | 83657
    6 | 18:35.33 | 3:39.01 | 83658 | 100083

    Трек 1

    Имя файла D:\Documents and Settings\user\Рабочий стол\«»—0–\01 LIVIN Rush.wav

    Длина предзазора 0:00:02.00

    Пиковый уровень 79.0 %
    Скорость извлечения 2.0 X
    Качество трека 100.0 %
    CRC теста 4180C421
    CRC копии 4180C421
    Копирование... OK

    Трек 2

    Имя файла D:\Documents and Settings\user\Рабочий стол\«»—0–\02 LIVIN Нет Рядом Меня.wav

    Пиковый уровень 72.7 %
    Скорость извлечения 1.8 X
    Качество трека 99.9 %
    CRC теста 7A0E006F
    CRC копии 7A0E006F
    Копирование... OK

    Трек 3

    Имя файла D:\Documents and Settings\user\Рабочий стол\«»—0–\03 LIVIN 0010011.wav

    Длина предзазора 0:00:00.01

    Пиковый уровень 68.7 %
    Скорость извлечения 2.0 X
    Качество трека 100.0 %
    CRC теста 5F8583F1
    CRC копии 5F8583F1
    Копирование... OK

    Трек 4

    Имя файла D:\Documents and Settings\user\Рабочий стол\«»—0–\04 LIVIN Wordless.wav

    Длина предзазора 0:00:00.01

    Пиковый уровень 96.6 %
    Скорость извлечения 2.4 X
    Качество трека 100.0 %
    CRC теста 4F5270EE
    CRC копии 4F5270EE
    Копирование... OK

    Трек 5

    Имя файла D:\Documents and Settings\user\Рабочий стол\«»—0–\05 LIVIN Продолжаем Танцювать.wav

    Длина предзазора 0:00:00.01

    Пиковый уровень 92.4 %
    Скорость извлечения 2.6 X
    Качество трека 100.0 %
    CRC теста 4049482F
    CRC копии 4049482F
    Копирование... OK

    Трек 6

    Имя файла D:\Documents and Settings\user\Рабочий стол\«»—0–\06 LIVIN Home.wav

    Пиковый уровень 66.9 %
    Скорость извлечения 2.6 X
    Качество трека 100.0 %
    CRC теста 10A62CC1
    CRC копии 10A62CC1
    Копирование... OK

    Ошибок не произошло

    Конец отчёта

    ==== Контрольная сумма отчёта 0D932EEE84368B0D741EA19A971BD3BE8331A2C32FD10459F6344B353F645584 ====

Тривалість: 00:22:13
Мова: російська (2, 5), інструментальні композиції (1, 3, 4, 6)
Аудіо-кодек: FLAC
Бітрейт: 795 кб/с
Джерело: ріп із власного CD
Додаткова інформація:
Музичний 8-bit проект київського художника Богдана Magenta офіційно створений в 2011 році. У порівнянні з попередніми, на цьому релізі музикант значно розширив 8-bit звучання за рахунок інді-попу. EP було видано на mini-CD суперлімітованим тиражем в десять примірників.



Якщо Ви справді бажаєте підтримати українське - після прослуховування, якщо музика вам сподобалась, придбайте ліцензійний диск. Підтримаймо вітчизняних виконавців!


Срібний реліз (на рейтинг впливає 50% завантаженого)
 Трекер:    Зареєстрований   

Завантажити / скачати українську музику



відео для новачків



 Зареєстрований:   2013-03-04 08:49
 Розмір:   126 MB 
 Оцінка музики:   5.5/10 (Голосів: 2)
   
ssTAss 
Модератор музики


З нами з: 05.07.08
Востаннє: 23.08.17
Повідомлень: 11812

2013-03-05 02:22  
прибрав посилання на саундклуд
нема оф сайту - рядок краще витерти взагалі
muhomor написано:
EP було видано на mini-CD суперлімітованим тиражем в десять примірників.

Wide grin

Ваш часовий пояс: GMT + 2 Години

Нова тема   Відповісти