Баффі - винищувачка вампірів (Сезон 8, серія 1-6) / Buffy the Vampire Slayer (Season 8, episodes 1-6) (2010) 720p-mini Ukr/Eng | sub Ukr/Eng

Нові коментарі

Нова тема   Відповісти
Останній раз роздавалося don pedro (2021-04-11)
Автор Повідомлення
magmator 
VIP


З нами з: 04.05.09
Востаннє: 04.04.21
Повідомлень: 933

2013-03-03 22:58  
Баффі - винищувачка вампірів (Сезон 8, серія 1-6) / Buffy the Vampire Slayer (Season 8, episodes 1-6) (2010) 720p-mini Ukr/Eng | sub Ukr/Eng

Баффі - винищувачка вампірів (Сезон 8, серія 1-6) / Buffy the Vampire Slayer (Season 8, episodes 1-6) (2010) 720p-mini Ukr/Eng | sub Ukr/Eng


Жанр: фантастика, пригодницький, містика
Країна: США,



Кіностудія / кінокомпанія: Джефф Шутер
Режисер: Jeff Shooter
Актори: Келлі Елбанезе, Маркус Ешлі і Алекс Колінс

Сюжет:
Продовження серіалу Баффі, раніше випущене в коміксах, але з часом перевидане у відеоверсії на Bluray.


Тривалість: 00:11:00
Якість: 720p-mini
Відео:
кодек:
розмір кадру: 1280x720
бітрейт: 1280 кб/с

Аудіо 1:
мова: українська
переклад: любительский одноголосий Mia RGGliger
кодек: mp3
бітрейт: 192 кб/с

Аудіо 2:
мова: англійська
переклад: оригінал
кодек: 5.1
бітрейт: 1510 кб/с

Субтитри 1:
мова: українська
тип: програмні (м'які)
формат: *.srt
Переклав на українську з російської: magmator

Субтитри 2:
мова: англійська
тип: програмні (м'які)
формат: *.srt
інформація про відео Media Info

Buffy the vampire slayer seson 8 episode 01.
H:\Мультфільми\8 season\buffy.the.vampire.slayer\Buffy the vampire slayer seson 8 episode 01.
General
Unique ID : 209451724936456460137851173626188809806 (0x9D92EF5555EA50F59A38FEB9E32E464E)
Complete name : H:\Мультфільми\8 season\buffy.the.vampire.slayer\Buffy the vampire slayer seson 8 episode 01.
Format :
Format version : Version 2
File size : 371 MiB
Duration : 10mn 28s
Overall bit rate : 4 947 Kbps
Encoded date : UTC 2013-03-05 13:50:23
Writing application : v4.7.0 ('Just Like You Imagined') сборка от Apr 21 2011 01:13:14
Writing library : libebml v1.2.0 + v1.1.0
Video #1
ID : 1
Format : AVC
Format/Info : Advanced Video Codec
Format profile : [email protected]
Format settings, CABAC : Yes
Format settings, ReFrames : 5 frames
Codec ID : V_MPEG4/ISO/AVC
Duration : 10mn 28s
Bit rate : 3 338 Kbps
Width : 1 280 pixels
Height : 720 pixels
Display aspect ratio : 16:9
Frame rate : 30.000 fps
Original frame rate : 29.970 fps
Color space : YUV
Chroma subsampling : 4:2:0
Bit depth : 8 bits
Scan type : Progressive
Bits/(Pixel*Frame) : 0.121
Stream size : 250 MiB (67%)
Language : English
Default : Yes
Forced : No
Audio #2
ID : 2
Format :
Format/Info : Digital Theater Systems
Codec ID : A_DTS
Duration : 10mn 28s
Bit rate mode : Constant
Bit rate : 1 510 Kbps
Channel(s) : 6 channels
Channel positions : Front: L C R, Side: L R, LFE
Sampling rate : 48.0 KHz
Bit depth : 24 bits
Compression mode : Lossy
Stream size : 113 MiB (31%)
Language : English
Default : Yes
Forced : No
Text #3
ID : 3
Format : UTF-8
Codec ID : S_TEXT/UTF8
Codec ID/Info : UTF-8 Plain Text
Title : Саби RGGliger
Language : Ukrainian
Default : Yes
Forced : No
Text #4
ID : 4
Format : UTF-8
Codec ID : S_TEXT/UTF8
Codec ID/Info : UTF-8 Plain Text
Language : English
Default : No
Forced : No
Список серій

Присутні в роздачі
Buffy the Vampire Slayer: The Long Way Home (Season 8, #1)
Buffy the Vampire Slayer: No Future for You (Season 8, #2)
Buffy the Vampire Slayer: Wolves at the Gate (Season 8, #3)
Buffy the Vampire Slayer: Time of Your Life (Season 8, #4)
Buffy the Vampire Slayer: Predators and Prey (Season 8, #5)
Buffy the Vampire Slayer: Retreat (Season 8, #6)

Відсутні в роздачі

Buffy the Vampire Slayer: Twilight (Season 8, #7)
Buffy the Vampire Slayer: Last Gleaming (Season 8, #8)

Скріншоти


Джерело:
Особиста оцінка: 10 - без зайвих вагань рекомендую всім!
Торент перезалито 19.04.2013. Добавлено 1 серію з озвучкою від нашої реліз групи Gliger. Озвучила Mia.


Золотий реліз (завантажене не впливає на рейтинг)
 Трекер:    Зареєстрований   

Завантажити / скачати мультфільм українською



відео для новачків



 Зареєстрований:   2013-04-19 22:58
 Розмір:   2.19 GB 
 Оцінка мультсеріалу:   8.6/10 (Голосів: 11)
   
bot 
робот


З нами з: 30.09.07
Востаннє: 26.05.05
Повідомлень: 27881

2013-03-04 02:42  
Тему перенесено з Мультсеріали до форуму Мультсеріали в HD


pyatachok

pyatachok 
Координатор літератури


З нами з: 30.01.10
Востаннє: 11.04.21
Повідомлень: 1314

2013-03-04 02:45  
magmator написано:

magmator написано:
Якість:

Замініть на 720p
magmator написано:

кодек: 2.0
бітрейт: 1510 кб/с

Або з кодеком помилка, або з бітрейтом...
Додайте звіт Media Info
Скріншоти повинні бути в *.png
Додайте спойлер "перелік серій"
magmator написано:

Режисер: Jeff Shooter
Актори: Kelly Albanese, Marcus Ashley and Alex Collins

Продублюйте українською

magmator 
VIP


З нами з: 04.05.09
Востаннє: 04.04.21
Повідомлень: 933

2013-03-04 17:50  
Виправлено!
pyatachok 
Координатор літератури


З нами з: 30.01.10
Востаннє: 11.04.21
Повідомлень: 1314

2013-03-04 18:30  
magmator написано:
Muxing mode : Header stripping

Прийдеться переробляти, Header stripping має бути вимкненим.
Цитата:
3. Вимкнена функція Header stripping (* як це зробити https://toloka.to/t31095)

magmator 
VIP


З нами з: 04.05.09
Востаннє: 04.04.21
Повідомлень: 933

2013-03-05 16:56  
Торент перезалито 05.03.2013. Добавлено 2 серію. Перезібрав 1 серію згідно технічних характеристик
magmator 
VIP


З нами з: 04.05.09
Востаннє: 04.04.21
Повідомлень: 933

2013-03-06 16:46  
Може хтось гарно українізує постер
magmator 
VIP


З нами з: 04.05.09
Востаннє: 04.04.21
Повідомлень: 933

2013-03-07 18:41  
Торент перезалито 07.03.2013. Добавлено 3 серію
magmator 
VIP


З нами з: 04.05.09
Востаннє: 04.04.21
Повідомлень: 933

2013-03-10 22:33  
Торент перезалито 10.03.2013. Добавлено 4 серію
magmator 
VIP


З нами з: 04.05.09
Востаннє: 04.04.21
Повідомлень: 933

2013-03-23 18:53  
Торент перезалито 23.03.2013. Добавлено 5 серію
magmator 
VIP


З нами з: 04.05.09
Востаннє: 04.04.21
Повідомлень: 933

2013-04-11 22:28  
Торент перезалито 11.04.2013. Добавлено 6 серію
magmator 
VIP


З нами з: 04.05.09
Востаннє: 04.04.21
Повідомлень: 933

2013-04-19 22:59  
Торент перезалито 19.04.2013. Добавлено 1 серію з озвучкою від нашої реліз групи Gliger. Озвучила Mia. Зведення звука моє.
Givi 
Модератор відео


З нами з: 25.02.08
Востаннє: 12.04.21
Повідомлень: 2979

2013-07-08 14:39  
magmator написано:
бітрейт: 1280 кб/с

magmator написано:
Bit rate : 3 338 Kbps

?????

don pedro 
Попереджень: 2
Попереджень: 2 


З нами з: 29.06.11
Востаннє: 12.04.21
Повідомлень: 19113

2014-10-19 05:09  
S1S13AF7 
Поважний учасник


З нами з: 07.06.10
Востаннє: 30.03.21
Повідомлень: 249

2016-01-23 18:04  
Цитата:
Завантажили: [ 21 ]
Останній раз роздавалося fille-de-mort (2016-01-22)
Завантажують: [ 2 ]


Може хтось роздасть?
Чим більше, тим краще.
Але хоч хтось....?

magmator 
VIP


З нами з: 04.05.09
Востаннє: 04.04.21
Повідомлень: 933

2016-01-26 18:04  
роздаю
S1S13AF7 
Поважний учасник


З нами з: 07.06.10
Востаннє: 30.03.21
Повідомлень: 249

2016-01-26 19:45  
А озвучка лише в першій серії?
KardashNata 
Новенький


З нами з: 13.09.14
Востаннє: 05.01.20
Повідомлень: 4

2018-06-24 12:26  
Дякую, бачила ффільм, а мультик ще ні. Подивлюсь з задоволенням
gig_Panas 
Відео Гуртом - запис з ТБ
Відео Гуртом - запис з ТБ


З нами з: 26.05.10
Востаннє: 14.04.21
Повідомлень: 754

2021-01-07 13:48  
magmator
правильне посилання на imdb
Buffy the Vampire Slayer: Season 8 Motion Comic (2011)

Ваш часовий пояс: GMT + 2 Години

Нова тема   Відповісти