Гладіатори Риму / Gladiatori di Roma (2012) 1080p Ukr/Ita

Нові коментарі

Нова тема   Відповісти
Автор Повідомлення
Anonymous 







2013-03-02 09:41  
Гладіатори Риму / Gladiatori di Roma (2012) 1080p Ukr/Ita

Гладіатори Риму / Gladiatori di Roma (2012) 1080p Ukr/Ita


Жанр: анімація, пригодницький, комедія
Країна: Італія



Кіностудія / кінокомпанія: Rainbow S.r.l.
Режисер: Іґініо Страффі
Актори: Люка Арджентеро, Лаура Кьятті, Джуліанна Хаф та ін.

Сюжет:
Страшне виверження вулкана руйнує місто Помпеї, і маленький Тім залишається сиротою. Його рятівник, генерал Кірон, відправляє Тіма в школу гладіаторів, але юний ледар наполегливо не бажає ставати бійцем. Подорослішавши, Тім закохується в красуню Лючіллу. Але щоб підкорити її серце, потрібно стати справжнім героєм. Прекрасна Діана, богиня полювання і майстер по гладіаторським боям, береться за тренування Тіма перед першим боєм. Але чи вийде у Тіма перемогти самого себе і стати справжнім чоловіком?


Рейтинг MPAA: PG - рекомендується присутність батьків
Вікова категорія: 6+

Тривалість: 01:34:04
Якість: 1080p
Відео:
кодек:
розмір кадру: 1920x816
бітрейт: 5562 кбіт/с

Аудіо # 1:
мова: українська
переклад: професійний дубльований
кодек: 5.1
бітрейт: 448 кбіт/с
Інформація про озвучення
Режисер: Олександр Єфімов
Ролі озвучили: Дмитро Завадський, Олена Яблучна, Андрій Федінчик, Олена Узлюк, Юрій Ребрик, Ярослав Чорненький, Ірина Грей, Анатолій Зіновенко, Андрій Альохін та інші.
Фільм перекладено і озвучено на студії AAA-sound
Аудіо # 2:
мова: італійська
переклад: оригінал
кодек: 5.1
бітрейт: 640 кбіт/с

Збережено оригінальні розділи, як на Blu-ray.
Info
Код:
General
Unique ID                                : 247019531949907585691971947947443043773 (0xB9D63B394CE6BF5ABB5D745AF50F3DBD)
Complete name                            : Gladiatori.di.Roma.2012..1080p.Ukr.Ita.
Format                                   :
Format version                           : Version 4 / Version 2
File size                                : 4.37 GiB
Duration                                 : 1h 34mn
Overall bit rate                         : 6 650 Kbps
Movie name                               : Гладіатори Риму / Gladiatori di Roma / Гладиаторы Рима (2012)
Encoded date                             : UTC 2013-03-01 16:46:35
Writing application                      : mkvmerge v6.0.0 ('Coming Up For Air') built on Jan 20 2013 09:52:00
Writing library                          : libebml v1.3.0 + libmatroska v1.4.0

Video
ID                                       : 1
Format                                   : AVC
Format/Info                              : Advanced Video Codec
Format profile                           : [email protected]
Format settings, CABAC                   : Yes
Format settings, ReFrames                : 5 frames
Codec ID                                 : V_MPEG4/ISO/AVC
Duration                                 : 1h 34mn
Bit rate                                 : 5 562 Kbps
Width                                    : 1 920 pixels
Height                                   : 816 pixels
Display aspect ratio                     : 2.35:1
Frame rate mode                          : Constant
Frame rate                               : 23.976 fps
Color space                              : YUV
Chroma subsampling                       : 4:2:0
Bit depth                                : 8 bits
Scan type                                : Progressive
Bits/(Pixel*Frame)                       : 0.148
Stream size                              : 3.57 GiB (82%)
Title                                    : rip by Dimok, release by igor911 [Hurtom]
Writing library                          : core 129 r2245 bc13772
Encoding settings                        : cabac=1 / ref=5 / deblock=1:0:0 / analyse=0x3:0x133 / me=umh / subme=11 / psy=1 / psy_rd=1.00:0.10 / mixed_ref=1 / me_range=32 / chroma_me=1 / trellis=2 / 8x8dct=1 / cqm=0 / deadzone=21,11 / fast_pskip=0 / chroma_qp_offset=-1 / threads=12 / lookahead_threads=2 / sliced_threads=0 / slices=1 / nr=0 / decimate=0 / interlaced=0 / bluray_compat=0 / constrained_intra=0 / bframes=3 / b_pyramid=2 / b_adapt=2 / b_bias=0 / direct=3 / weightb=1 / open_gop=0 / weightp=2 / keyint=240 / keyint_min=23 / scenecut=40 / intra_refresh=0 / rc_lookahead=70 / rc=2pass / mbtree=1 / bitrate=5562 / ratetol=1.0 / qcomp=0.62 / qpmin=1 / qpmax=69 / qpstep=4 / cplxblur=20.0 / qblur=0.5 / ip_ratio=1.40 / aq=1:1.00
Language                                 : English
Default                                  : Yes
Forced                                   : No

Audio #1
ID                                       : 2
Format                                   : AC-3
Format/Info                              : Audio Coding 3
Mode extension                           : CM (complete main)
Format settings, Endianness              : Big
Codec ID                                 : A_AC3
Duration                                 : 1h 34mn
Bit rate mode                            : Constant
Bit rate                                 : 448 Kbps
Channel(s)                               : 6 channels
Channel positions                        : Front: L C R, Side: L R, LFE
Sampling rate                            : 48.0 KHz
Bit depth                                : 16 bits
Compression mode                         : Lossy
Stream size                              : 301 MiB (7%)
Title                                    : Dub AAA-sound [Hurtom-Skiff]
Language                                 : Ukrainian
Default                                  : Yes
Forced                                   : No

Audio #2
ID                                       : 3
Format                                   : AC-3
Format/Info                              : Audio Coding 3
Mode extension                           : CM (complete main)
Format settings, Endianness              : Big
Codec ID                                 : A_AC3
Duration                                 : 1h 34mn
Bit rate mode                            : Constant
Bit rate                                 : 640 Kbps
Channel(s)                               : 6 channels
Channel positions                        : Front: L C R, Side: L R, LFE
Sampling rate                            : 48.0 KHz
Bit depth                                : 16 bits
Compression mode                         : Lossy
Stream size                              : 431 MiB (10%)
Title                                    : Original
Language                                 : Italian
Default                                  : No
Forced                                   : No

Menu
00:00:00.000                             : :0:00:00
00:05:49.807                             : :0:05:49
00:13:47.034                             : :0:13:47
00:19:00.138                             : :0:19:00
00:25:01.416                             : :0:25:01
00:31:26.426                             : :0:31:26
00:35:59.031                             : :0:35:59
00:42:21.205                             : :0:42:21
00:47:07.866                             : :0:47:07
00:52:27.227                             : :0:52:27
00:56:24.089                             : :0:56:24
01:03:29.806                             : :1:03:29
01:08:41.283                             : :1:08:41
01:13:22.648                             : :1:13:22
01:17:42.282                             : :1:17:42
01:23:48.356                             : :1:23:48
[info]: frame I:1823 Avg QP:14.77 size:264709
[info]: frame P:48929 Avg QP:19.31 size: 47661
[info]: frame B:84584 Avg QP:23.16 size: 13100


Джерело: ріп відео, оригінальна доріжка - Gorelov (Dimok) (рутор), українська доріжка та опис - Skiff


 Трекер:    Зареєстрований   

Завантажити / скачати мультфільм українською



відео для новачків



 Зареєстрований:   2013-03-02 09:41
 Розмір:   4.37 GB 
 Оцінка мультфільму:   6.3/10 (Голосів: 26)
   
Інші релізи
ratbol 
Модератор HD


З нами з: 03.02.09
Востаннє: 19.08.17
Повідомлень: 1083

2013-03-02 11:55  
Скріншоти в png.
Tarasyk 
Відео Гуртом - фільмокрай
Відео Гуртом - фільмокрай


З нами з: 26.08.09
Востаннє: 19.08.17
Повідомлень: 6354

2013-03-02 12:04  
Є ДТС https://toloka.to/t44372

Додано через 25 секунд:

Там вона справжня, не псевдо. Прошу замінити доріжку.

11FrYkT 
Модератор відео


З нами з: 20.02.11
Востаннє: 19.08.17
Повідомлень: 3807

2013-03-02 12:08  
Tarasyk , пише такої теми не існує. Хочу робити 720
Anonymous 







2013-03-02 15:26  
Скріни замінив, теми з ДТС не знайшов.
Kirin 
VIP


З нами з: 28.07.08
Востаннє: 31.07.17
Повідомлень: 257

2013-03-02 17:46  
а чого "Риму", а не "Рима"
Віктор 
Відео Гуртом - субтитрування
Відео Гуртом - субтитрування


З нами з: 09.01.10
Востаннє: 11.08.17
Повідомлень: 8686

2013-03-02 18:16  
Kirin написано:
чого "Риму", а не "Рима"

Бо так озвучено. Щодо того, як правильно http://rodovyi-vidminok.wikidot.com/geografichni-nazvy

Рим, -а (місто) і -у (держава)

omm 
Відео Гуртом - фільмокрай
Відео Гуртом - фільмокрай


З нами з: 12.06.12
Востаннє: 19.08.17
Повідомлень: 2198

2013-03-02 21:29  
Буде аві?
11FrYkT 
Модератор відео


З нами з: 20.02.11
Востаннє: 19.08.17
Повідомлень: 3807

2013-03-02 21:35  
omm 
Відео Гуртом - фільмокрай
Відео Гуртом - фільмокрай


З нами з: 12.06.12
Востаннє: 19.08.17
Повідомлень: 2198

2013-03-03 00:05  
11FrYkT
дякую, щось я останнім часом поганенько шукаю.

11FrYkT 
Модератор відео


З нами з: 20.02.11
Востаннє: 19.08.17
Повідомлень: 3807

2013-03-03 09:34  
omm , будь ласка. Також можна дивитись під спойлером: Інші релізи
Ваш часовий пояс: GMT + 2 Години

Нова тема   Відповісти