Лихо мурашине / The Ant Bully (2006) 720p Ukr/Eng | Sub Ukr/Eng

Нові коментарі

Нова тема   Відповісти
Останній раз роздавалося 2Alex (2017-08-16)
Автор Повідомлення
braveboy 
Відео Гуртом - команда HD
Відео Гуртом - команда HD


З нами з: 15.06.10
Востаннє: 13.08.17
Повідомлень: 949

2013-02-28 20:11  

Лихо мурашине / The Ant Bully (2006) 720p Ukr/Eng | Sub Ukr/Eng


Лихо мурашине / The Ant Bully (2006) 720p Ukr/Eng | Sub Ukr/Eng

« An epic battle of tiny proportions! »

Жанр: анімація, пригодницький, фентезі, комедія, сімейний
Країна: США



Кіностудія / кінокомпанія: Warner Bros. Pictures, Playtone, DNA Productions
Режисер: Джон А. Девіс (John A. Davis)
Актори: Джулія Робертс (Julia Roberts), Ніколас Кейдж (Nicolas Cage), Меріл Стріп (Meryl Streep), Пол Джаматті (Paul Giamatti), Зек Тайлер (Zach Tyler), Реджіна Кінг (Regina King), Брюс Кемпбелл (Bruce Campbell) та інші.

Сюжет:
Нещасний 10-річний Лукас ніяк не може влаштуватися на новому місці. Недавно переїхавши з сім'єю в нове місто він до цих пір не знайшов жодного друга. До того ж його батьки, приділяють йому дуже мало уваги, а від сестри-підлітка Тіффані можна чекати одних тільки неприємностей. Але найгірше, що Лукас став головною мішенню місцевого задираки Стіва, який не упускає можливості познущатися над ним. У відповідь на це Лукас знаходить собі розвагу в руйнуванні мурашників на задньому дворі свого будинку, випліскуючи свою досаду на беззахисні горбики землі і їх ні в чому не повинних мешканців. Але він і не здогадується, що прямо під його ногами живе, що знаходиться в постійному русі, цілий світ, і те, що йому здається всього лише «купкою маленьких мурашок» насправді ціле суспільство з іменами і спорідненістю, відповідальністю і емоціями.


Тривалість: 01:29:03
Якість: 720p
Відео:
кодек:
розмір кадру: 1280 х 720
бітрейт: 4317 кб/с

Аудіо # 1:
мова: українська
переклад: багатоголосий закадровий
кодек: 2.0
бітрейт: 192 кб/с

Аудіо # 2:
мова: англійська
переклад: оригінал
кодек: 5.1
бітрейт: 640 кб/с

Джерело озвучення:


Субтитри:
мова: українська
тип: програмні (м'які)
формат: *.srt

Субтитри:
мова: англійська
тип: програмні (м'які)
формат: *.srt
720p by braveboy
Info
Format :
Format version : Version 4 / Version 2
File size : 3.20 GiB
Duration : 1h 29mn
Overall bit rate : 5 151 Kbps
Movie name : The Ant Bully (2006) 720p by braveboy
Encoded date : UTC 2010-02-22 21:41:31
Writing application : mkvmerge v5.9.0 ('On The Loose') built on Dec 9 2012 15:37:01
Writing library : libebml v1.3.0 + libmatroska v1.4.0

Video
ID : 1
Format : AVC
Format/Info : Advanced Video Codec
Format profile : [email protected]
Format settings, CABAC : Yes
Format settings, ReFrames : 8 frames
Codec ID : V_MPEG4/ISO/AVC
Duration : 1h 29mn
Bit rate : 4 317 Kbps
Width : 1 280 pixels
Height : 720 pixels
Display aspect ratio : 16:9
Frame rate mode : Constant
Frame rate : 23.976 fps
Color space : YUV
Chroma subsampling : 4:2:0
Bit depth : 8 bits
Scan type : Progressive
Bits/(Pixel*Frame) : 0.195
Stream size : 2.62 GiB (82%)
Title : The Ant Bully (2006) 720p by braveboy
Writing library : core 125 r2208 d9d2288
Encoding settings : cabac=1 / ref=8 / deblock=1:-3:-3 / analyse=0x3:0x133 / me=umh / subme=10 / psy=1 / psy_rd=0.80:0.00 / mixed_ref=1 / me_range=34 / chroma_me=1 / trellis=2 / 8x8dct=1 / cqm=0 / deadzone=21,11 / fast_pskip=0 / chroma_qp_offset=-2 / threads=6 / lookahead_threads=1 / sliced_threads=0 / nr=0 / decimate=0 / interlaced=0 / bluray_compat=0 / constrained_intra=0 / bframes=6 / b_pyramid=2 / b_adapt=2 / b_bias=0 / direct=1 / weightb=1 / open_gop=0 / weightp=2 / keyint=240 / keyint_min=23 / scenecut=40 / intra_refresh=0 / rc=2pass / mbtree=0 / bitrate=4317 / ratetol=1.0 / qcomp=0.60 / qpmin=10 / qpmax=51 / qpstep=4 / cplxblur=20.0 / qblur=0.5 / ip_ratio=1.40 / pb_ratio=1.30 / aq=1:1.00
Default : Yes
Forced : No

Audio #1
ID : 2
Format : AC-3
Format/Info : Audio Coding 3
Mode extension : CM (complete main)
Format settings, Endianness : Big
Codec ID : A_AC3
Duration : 1h 29mn
Bit rate mode : Constant
Bit rate : 192 Kbps
Channel(s) : 2 channels
Channel positions : Front: L R
Sampling rate : 48.0 KHz
Bit depth : 16 bits
Compression mode : Lossy
Stream size : 122 MiB (4%)
Title : 2.0 @ 192 kbps [Novy]
Language : Ukrainian
Default : Yes
Forced : No

Audio #2
ID : 3
Format : AC-3
Format/Info : Audio Coding 3
Mode extension : CM (complete main)
Format settings, Endianness : Big
Codec ID : A_AC3
Duration : 1h 29mn
Bit rate mode : Constant
Bit rate : 640 Kbps
Channel(s) : 6 channels
Channel positions : Front: L C R, Side: L R, LFE
Sampling rate : 48.0 KHz
Bit depth : 16 bits
Compression mode : Lossy
Stream size : 408 MiB (12%)
Title : 5.1 @ 640 kbps
Language : English
Default : No
Forced : No

Text #1
ID : 4
Format : UTF-8
Codec ID : S_TEXT/UTF8
Codec ID/Info : UTF-8 Plain Text
Title : Full
Language : Ukrainian
Default : No
Forced : No

Text #2
ID : 5
Format : UTF-8
Codec ID : S_TEXT/UTF8
Codec ID/Info : UTF-8 Plain Text
Title : Full
Language : English
Default : No
Forced : No

Menu
00:00:00.000 : en:00:00:00.000
00:02:48.835 : en:00:02:48.835
00:05:54.020 : en:00:05:54.020
00:10:58.491 : en:00:10:58.491
00:15:01.567 : en:00:15:01.567
00:19:55.528 : en:00:19:55.528
00:23:27.239 : en:00:23:27.239
00:27:31.316 : en:00:27:31.316
00:30:28.160 : en:00:30:28.160
00:33:37.182 : en:00:33:37.182
00:36:56.881 : en:00:36:56.881
00:39:48.052 : en:00:39:48.052
00:44:42.680 : en:00:44:42.680
00:49:38.976 : en:00:49:38.976
00:54:11.415 : en:00:54:11.415
00:56:43.734 : en:00:56:43.734
00:59:52.589 : en:00:59:52.589
01:03:00.110 : en:01:03:00.110
01:05:55.618 : en:01:05:55.618
01:08:27.937 : en:01:08:27.937
01:11:21.277 : en:01:11:21.277
01:15:17.346 : en:01:15:17.346
01:17:23.639 : en:01:17:23.639
01:20:27.823 : en:01:20:27.823
Скріншоти




Особиста оцінка: 0 - не дивився


 Трекер:    Зареєстрований   

Завантажити / скачати мультфільм українською



відео для новачків



 Зареєстрований:   2013-03-10 07:17
 Розмір:   3.2 GB 
 Оцінка мультфільму:   10/10 (Голосів: 3)
   
Інші релізи
BMK12 
Відео Гуртом - підтримка та поширення
Відео Гуртом - підтримка та поширення


З нами з: 13.04.09
Востаннє: 18.08.17
Повідомлень: 3110

2013-11-15 22:29  
Відсутні скріншоти.
braveboy 
Відео Гуртом - команда HD
Відео Гуртом - команда HD


З нами з: 15.06.10
Востаннє: 13.08.17
Повідомлень: 949

2013-11-15 23:36  
BMK12 написано:
Відсутні скріншоти.

знаюHappy

Sorbeks 
Новенький


З нами з: 14.06.16
Востаннє: 16.08.17
Повідомлень: 6

2016-07-14 23:19  
Дайте швидкість !)))
Ваш часовий пояс: GMT + 2 Години

Нова тема   Відповісти