Комендантська година / Curfew (2012) 720р Eng | sub Ukr/Fre

Нові коментарі

Нова тема   Відповісти
Останній раз роздавалося 1101 (2020-01-22)
Автор Повідомлення
1101 
Свій


З нами з: 09.07.12
Востаннє: 18.01.20
Повідомлень: 79

2013-02-27 18:13  
Комендантська година / Curfew (2012) 720р Eng | sub Ukr/Fre

Комендантська година / Curfew (2012) 720р Eng | sub Ukr/Fre


Жанр: короткометражний, драма
Країна: США



Кіностудія / кінокомпанія: Fuzzy Logic Pictures
Режисер: Шон Крістенсен
Актори: Фатіма Птацек, Шон Крістенсен, Кім Аллен, Дена Сігал, Керстен Холлі Сміт.

Сюжет:
Коли Річі наважується, нарешті, покінчити із життям, у ньому з'являється новий сенс: дев'яти річна племінниця Софія, котрої Річі не бачив кілька років. Чи зміниться його життя завдяки одному вечору з неординарною дівчинкою?


Премія "Оскар" 2013 року за найкращий короткометражний ігровий фільм.

Тривалість: 00:19:42
Якість: 720p
Відео:
кодек:
розмір кадру: 1280х536
бітрейт: 3972 кб/с

Аудіо:
мова: англійська
переклад: оригінал
кодек: 5.1
бітрейт: 384 кб/с

Субтитри:
мова: французька
тип: програмні (м’які)
формат: *.srt

Субтитри:
мова: українська
тип: програмні (м'які)
формат: *.srt




Media info

Format :
Format version : Version 4 / Version 2
File size : 626 MiB
Duration : 19mn 42s
Overall bit rate : 4 444 Kbps
Movie name : ripped by HD4FUN.COM
Encoded date : UTC 2013-02-25 11:39:05
Writing application : v6.0.0 ('Coming Up For Air') built on Jan 20 2013 09:52:00
Writing library : libebml v1.3.0 + v1.4.0

Video
ID : 1
Format : AVC
Format/Info : Advanced Video Codec
Format profile : [email protected]
Format settings, CABAC : No
Format settings, ReFrames : 2 frames
Codec ID : V_MPEG4/ISO/AVC
Duration : 19mn 42s
Bit rate : 3 972 Kbps
Width : 1 280 pixels
Height : 536 pixels
Display aspect ratio : 2.40:1
Frame rate : 23.976 fps
Color space : YUV
Chroma subsampling : 4:2:0
Bit depth : 8 bits
Scan type : Progressive
Bits/(Pixel*Frame) : 0.241
Stream size : 560 MiB (89%)
Title : ripped by HD4FUN.COM
Language : English
Default : Yes
Forced : No
Color primaries : BT.709-5, BT.1361, IEC 61966-2-4, SMPTE RP177
Transfer characteristics : BT.709-5, BT.1361
Matrix coefficients : BT.709-5, BT.1361, IEC 61966-2-4 709, SMPTE RP177

Audio
ID : 2
Format : AC-3
Format/Info : Audio Coding 3
Mode extension : CM (complete main)
Codec ID : A_AC3
Duration : 19mn 42s
Bit rate mode : Constant
Bit rate : 384 Kbps
Channel(s) : 6 channels
Channel positions : Front: L C R, Side: L R, LFE
Sampling rate : 48.0 KHz
Bit depth : 16 bits
Compression mode : Lossy
Stream size : 54.1 MiB (9%)
Language : English
Default : Yes
Forced : No

Text
ID : 3
Format : UTF-8
Codec ID : S_TEXT/UTF8
Codec ID/Info : UTF-8 Plain Text
Language : French
Default : No
Forced : NoFormat :
Format version : Version 4 / Version 2
File size : 626 MiB
Duration : 19mn 42s
Overall bit rate : 4 444 Kbps
Movie name : ripped by HD4FUN.COM
Encoded date : UTC 2013-02-25 11:39:05
Writing application : v6.0.0 ('Coming Up For Air') built on Jan 20 2013 09:52:00
Writing library : libebml v1.3.0 + v1.4.0

Video
ID : 1
Format : AVC
Format/Info : Advanced Video Codec
Format profile : [email protected]
Format settings, CABAC : No
Format settings, ReFrames : 2 frames
Codec ID : V_MPEG4/ISO/AVC
Duration : 19mn 42s
Bit rate : 3 972 Kbps
Width : 1 280 pixels
Height : 536 pixels
Display aspect ratio : 2.40:1
Frame rate : 23.976 fps
Color space : YUV
Chroma subsampling : 4:2:0
Bit depth : 8 bits
Scan type : Progressive
Bits/(Pixel*Frame) : 0.241
Stream size : 560 MiB (89%)
Title : ripped by HD4FUN.COM
Language : English
Default : Yes
Forced : No
Color primaries : BT.709-5, BT.1361, IEC 61966-2-4, SMPTE RP177
Transfer characteristics : BT.709-5, BT.1361
Matrix coefficients : BT.709-5, BT.1361, IEC 61966-2-4 709, SMPTE RP177

Audio
ID : 2
Format : AC-3
Format/Info : Audio Coding 3
Mode extension : CM (complete main)
Codec ID : A_AC3
Duration : 19mn 42s
Bit rate mode : Constant
Bit rate : 384 Kbps
Channel(s) : 6 channels
Channel positions : Front: L C R, Side: L R, LFE
Sampling rate : 48.0 KHz
Bit depth : 16 bits
Compression mode : Lossy
Stream size : 54.1 MiB (9%)
Language : English
Default : Yes
Forced : No

Text
ID : 3
Format : UTF-8
Codec ID : S_TEXT/UTF8
Codec ID/Info : UTF-8 Plain Text
Language : French
Default : No
Forced : No


Джерело: Piratebay
Особиста оцінка: 10 - без зайвих вагань рекомендую всім!


 Трекер:    Зареєстрований   

Завантажити / скачати фільм українською



відео для новачків



 Зареєстрований:   2013-02-27 18:13
 Розмір:   626 MB 
 Оцінка фільму:   10/10 (Голосів: 5)
   
pyatachok 
Координатор літератури


З нами з: 30.01.10
Востаннє: 20.01.20
Повідомлень: 1316

2013-02-27 20:47  
1101 написано:
Комендантська година / Curfew

Назву за зразком
"Гроші на двох / Two for the Money (2005) Ukr/Eng | sub Ukr/Eng"
1101 написано:
Якість: AVC

720p
1101 написано:
V_MPEG4/ISO/AVC

1101 написано:
кодек: A_AC3

5.1
1101 написано:
тип: вбудовані (можна відключити)

Не вбудовані, а в контейнері, але це не вказується... просто "програмні (м’які)"
1101 написано:
формат: *.ttxt

*.srt

додайте хоча б один скрін з субтитрами.

Ваш часовий пояс: GMT + 2 Години

Нова тема   Відповісти