Жах перед Різдвом / The Nightmare Before Christmas (1993) 720p Ukr/Eng | Sub Ukr/Eng

Нові коментарі

Нова тема   Відповісти
Автор Повідомлення
braveboy 
Відео Гуртом - команда HD
Відео Гуртом - команда HD


З нами з: 15.06.10
Востаннє: 13.08.17
Повідомлень: 949

2013-02-26 20:23  

Жах перед Різдвом / The Nightmare Before Christmas (1993) 720p Ukr/Eng | Sub Ukr/Eng


Жах перед Різдвом / The Nightmare Before Christmas (1993) 720p Ukr/Eng | Sub Ukr/Eng

«A ghoulish tale with wicked humour & stunning animation.»

Жанр: анімація, сімейний, фентезі, музичний
Країна: США



Кіностудія / кінокомпанія: Skellington Productions Inc., Walt Disney Pictures, Touchstone Pictures, Tim Burton Productions
Режисер: Генрі Селік / Henry Selick
Актори: Денні Ельфмен / Danny Elfman, Кріс Сарандон / Chris Sarandon, Кетрін О'Хара / Catherine O'Hara, Вілльям Гікі / William Hickey, Ґлен Шадікс / Glenn Shadix, Пол Рубенс / Paul Reubens, Кен Пейдж / Ken Page, Едвард Айворі / Edward Ivory, Сьюзен МакБрайд / Susan McBride, Дебі Дарст / Debi Durst, Ґреґ Прупс / Greg Proops, Керрі Кац / Kerry Katz, Ренді Креншо / Randy Crenshaw, Шервуд Болл / Sherwood Ball, Кармен Твіллі / Carmen Twillie

Сюжет:
Музичний мультфільм, який, попри вказані в титрах імена, майже повністю належить відомому режисеру Тіму Бартону від ідеї до реалізації. Практично відразу після виходу мультфільм набув культового статусу, а його головний герой Гарбузоголовий Джек, який викрав Санта-Клауса, аби самому зробити людям подарунки і отримати від них свою частинку вдячності, став одним із найвпізнаваніших кіногероїв.



Тривалість: 01:16:39
Якість: 720p
Відео:
кодек:
розмір кадру: 1200 х 720
бітрейт: 5696 кб/с

Аудіо # 1:
мова: українська
переклад: багатоголосий закадровий
кодек: 2.0
бітрейт: 192 кб/с

Аудіо # 2:
мова: англійська
переклад: оригінал
кодек: 5.1
бітрейт: 640 кб/с

Джерело озвучення:
озвучено «Так Треба Продакшн» на замовлення телекомпанії

Субтитри:
мова: українська
тип: програмні (м'які)
формат: *.srt

Субтитри:
мова: англійська
тип: програмні (м'які)
формат: *.srt
720p by braveboy
Info
Format :
Format version : Version 2
File size : 3.50 GiB
Duration : 1h 16mn
Overall bit rate : 6 527 Kbps
Movie name : The Nightmare Before Christmas (1993) 720p by braveboy
Encoded date : UTC 2012-09-29 16:10:39
Writing application : mkvmerge v5.8.0 ('No Sleep / Pillow') built on Sep 2 2012 15:37:04
Writing library : libebml v1.2.3 + libmatroska v1.3.0

Video
ID : 1
Format : AVC
Format/Info : Advanced Video Codec
Format profile : [email protected]
Format settings, CABAC : Yes
Format settings, ReFrames : 8 frames
Codec ID : V_MPEG4/ISO/AVC
Duration : 1h 16mn
Bit rate : 5 696 Kbps
Width : 1 200 pixels
Height : 720 pixels
Display aspect ratio : 1.667
Frame rate mode : Constant
Frame rate : 23.976 fps
Color space : YUV
Chroma subsampling : 4:2:0
Bit depth : 8 bits
Scan type : Progressive
Bits/(Pixel*Frame) : 0.275
Stream size : 2.98 GiB (85%)
Title : The Nightmare Before Christmas (1993) 720p by braveboy
Writing library : core 125 r2208 d9d2288
Encoding settings : cabac=1 / ref=8 / deblock=1:-3:-3 / analyse=0x3:0x133 / me=umh / subme=10 / psy=1 / psy_rd=0.80:0.00 / mixed_ref=1 / me_range=32 / chroma_me=1 / trellis=2 / 8x8dct=1 / cqm=0 / deadzone=21,11 / fast_pskip=0 / chroma_qp_offset=-2 / threads=6 / lookahead_threads=1 / sliced_threads=0 / nr=0 / decimate=0 / interlaced=0 / bluray_compat=0 / constrained_intra=0 / bframes=6 / b_pyramid=2 / b_adapt=2 / b_bias=0 / direct=1 / weightb=1 / open_gop=0 / weightp=2 / keyint=240 / keyint_min=24 / scenecut=40 / intra_refresh=0 / rc=2pass / mbtree=0 / bitrate=5696 / ratetol=1.0 / qcomp=0.60 / qpmin=10 / qpmax=51 / qpstep=4 / cplxblur=20.0 / qblur=0.5 / ip_ratio=1.40 / pb_ratio=1.30 / aq=1:1.00
Default : Yes
Forced : No

Audio #1
ID : 2
Format : AC-3
Format/Info : Audio Coding 3
Mode extension : CM (complete main)
Format settings, Endianness : Big
Codec ID : A_AC3
Duration : 1h 16mn
Bit rate mode : Constant
Bit rate : 192 Kbps
Channel(s) : 2 channels
Channel positions : Front: L R
Sampling rate : 48.0 KHz
Bit depth : 16 bits
Compression mode : Lossy
Stream size : 105 MiB (3%)
Title : 2.0 - 192 kbps
Language : Ukrainian
Default : Yes
Forced : No

Audio #2
ID : 3
Format : AC-3
Format/Info : Audio Coding 3
Mode extension : CM (complete main)
Format settings, Endianness : Big
Codec ID : A_AC3
Duration : 1h 16mn
Bit rate mode : Constant
Bit rate : 640 Kbps
Channel(s) : 6 channels
Channel positions : Front: L C R, Side: L R, LFE
Sampling rate : 48.0 KHz
Bit depth : 16 bits
Compression mode : Lossy
Stream size : 351 MiB (10%)
Title : 5.1 - 640 kbps
Language : English
Default : No
Forced : No

Text #1
ID : 4
Format : UTF-8
Codec ID : S_TEXT/UTF8
Codec ID/Info : UTF-8 Plain Text
Title : Full
Language : Ukrainian
Default : No
Forced : No

Text #2
ID : 5
Format : UTF-8
Codec ID : S_TEXT/UTF8
Codec ID/Info : UTF-8 Plain Text
Title : Full
Language : English
Default : No
Forced : No

Menu
00:00:00.000 : en:00:00:00.000
00:01:19.579 : en:00:01:19.579
00:06:22.299 : en:00:06:22.299
00:14:09.932 : en:00:14:09.932
00:20:53.210 : en:00:20:53.210
00:26:16.325 : en:00:26:16.325
00:30:44.342 : en:00:30:44.342
00:35:35.050 : en:00:35:35.050
00:38:45.531 : en:00:38:45.531
00:41:21.479 : en:00:41:21.479
00:45:43.115 : en:00:45:43.115
00:48:36.372 : en:00:48:36.372
00:51:09.942 : en:00:51:09.942
00:53:28.747 : en:00:53:28.747
00:55:13.226 : en:00:55:13.226
01:00:14.152 : en:01:00:14.152
01:02:02.927 : en:01:02:02.927
01:05:05.443 : en:01:05:05.443
01:09:16.611 : en:01:09:16.611
01:11:52.808 : en:01:11:52.808
Скріншоти








Особиста оцінка: 10 - без зайвих вагань рекомендую всім!


Срібний реліз (на рейтинг впливає 50% завантаженого)
 Трекер:    Зареєстрований   

Завантажити / скачати мультфільм українською



відео для новачків



 Зареєстрований:   2013-02-27 08:15
 Розмір:   3.5 GB 
 Оцінка мультфільму:   10/10 (Голосів: 24)
   
burjuis 
Новенький


З нами з: 22.11.15
Востаннє: 05.06.16
Повідомлень: 3

2016-03-13 12:25  
а коли буде в 1080р?
Ваш часовий пояс: GMT + 2 Години

Нова тема   Відповісти