Паранорман / ParaNorman (2012) 720p Ukr/Eng | sub Ukr/Eng

Нові коментарі

Нова тема   Відповісти
Автор Повідомлення
pyatachok 
Координатор літератури


З нами з: 30.01.10
Востаннє: 23.05.17
Повідомлень: 1331

2013-02-13 19:03  
Паранорман / ParaNorman (2012) 720p Ukr/Eng | sub Ukr/Eng

Паранорман / ParaNorman (2012) 720p Ukr/Eng | sub Ukr/Eng


Жанр: комедія, пригоди, жахи
Країна: США



Кіностудія / кінокомпанія: Laika Entertainment
Режисер: Кріс Батлер, Сем Фелл
Ролі озвучують (в оригіналі): Коді Сміт-МакФі, Анна Кендрік, Леслі Ман, Джон Гудмен, Крістофер Мінц-Плассе, Кейсі Афлек, Джодель Ферланд, Бернард Хілл, Джеремі Шеда, Джефф Гарлін

Сюжет:
Норман, Паранорман. Єдина надія напівсонного містечка в боротьбі з полчищами нечисті. Його зброя - супер-мега-дар: вміння спілкуватися з примарами. Втім, мерці - не головна небезпека, куди гірше - дурні дорослі з дробовиками.


Тривалість: 01:32:15
Якість: 720p (Ріп від EbP!)
Відео:
кодек:
розмір кадру: 1280x534
бітрейт: 2 889 кб/с

Аудіо # 1:
мова: українська
переклад: професійний дубльований
кодек: 5.1
бітрейт: 448 кб/с
Озвучення:
Інформація про дубляж:
Переклад: Роман Кисельов
Режисер дубляжу: Анна Пащенко
Координатор дубляжу: Мирослава Сидорук
Ролі дублювали: Максим Чумак, Михайло Жогло, Олександр Погребняк, Катерина Брайковська, Кирило Андрієв, Микола Боклан, Людмила Ардельян, Олександр Ігнатуша, Єлизавета Марченко, Наталя Надірадзе та інші.
Аудіо # 2:
мова: англійська
переклад: оригінал
кодек: 5.1
бітрейт: 448 кб/с

Субтитри:
мова: українська
тип: програмні (м'які)
формат: *.srt

Субтитри:
мова: англійська
тип: програмні (м'які)
формат: *.srt

Скріншоти
Info
Код:
General
Unique ID                                : 252509059863889776658012443168661027076 (0xBDF779D8A6D97AFC9BF3ECB2FCF3B904)
Complete name                            : D:\Hurtom\ParaNorman (2012)][Ukr, Eng][sub. Ukr, Eng] 720p [Hurtom-pyatachok].
Format                                   :
Format version                           : Version 4 / Version 2
File size                                : 2.49 GiB
Duration                                 : 1h 32mn
Overall bit rate                         : 3 862 Kbps
Movie name                               : ParaNorman (2012) - Release for Hurtom
Encoded date                             : UTC 2013-02-13 20:57:57
Writing application                      : mkvmerge v6.0.0 ('Coming Up For Air') built on Jan 20 2013 09:52:00
Writing library                          : libebml v1.3.0 + libmatroska v1.4.0
Attachment                               : Yes

Video
ID                                       : 1
Format                                   : AVC
Format/Info                              : Advanced Video Codec
Format profile                           : [email protected]
Format settings, CABAC                   : Yes
Format settings, ReFrames                : 12 frames
Codec ID                                 : V_MPEG4/ISO/AVC
Duration                                 : 1h 32mn
Bit rate                                 : 2 889 Kbps
Width                                    : 1 280 pixels
Height                                   : 534 pixels
Display aspect ratio                     : 2.40:1
Frame rate mode                          : Constant
Frame rate                               : 23.976 fps
Color space                              : YUV
Chroma subsampling                       : 4:2:0
Bit depth                                : 8 bits
Scan type                                : Progressive
Bits/(Pixel*Frame)                       : 0.176
Stream size                              : 1.86 GiB (75%)
Title                                    : Release for Hurtom
Writing library                          : core 129 r2230 1cffe9f
Encoding settings                        : cabac=1 / ref=12 / deblock=1:-2:-2 / analyse=0x3:0x133 / me=tesa / subme=11 / psy=1 / psy_rd=0.90:0.00 / mixed_ref=1 / me_range=16 / chroma_me=1 / trellis=2 / 8x8dct=1 / cqm=0 / deadzone=21,11 / fast_pskip=0 / chroma_qp_offset=-2 / threads=18 / lookahead_threads=3 / sliced_threads=0 / nr=0 / decimate=0 / interlaced=0 / bluray_compat=0 / constrained_intra=0 / bframes=9 / b_pyramid=2 / b_adapt=2 / b_bias=0 / direct=3 / weightb=1 / open_gop=0 / weightp=2 / keyint=240 / keyint_min=23 / scenecut=40 / intra_refresh=0 / rc=crf / mbtree=0 / crf=16.0 / qcomp=0.60 / qpmin=0 / qpmax=69 / qpstep=4 / ip_ratio=1.40 / pb_ratio=1.30 / aq=2:0.70
Language                                 : English
Default                                  : Yes
Forced                                   : No

Audio #1
ID                                       : 2
Format                                   : AC-3
Format/Info                              : Audio Coding 3
Mode extension                           : CM (complete main)
Format settings, Endianness              : Big
Codec ID                                 : A_AC3
Duration                                 : 1h 32mn
Bit rate mode                            : Constant
Bit rate                                 : 448 Kbps
Channel(s)                               : 6 channels
Channel positions                        : Front: L C R, Side: L R, LFE
Sampling rate                            : 48.0 KHz
Bit depth                                : 16 bits
Compression mode                         : Lossy
Stream size                              : 296 MiB (12%)
Language                                 : Ukrainian
Default                                  : Yes
Forced                                   : No

Audio #2
ID                                       : 3
Format                                   : AC-3
Format/Info                              : Audio Coding 3
Mode extension                           : CM (complete main)
Format settings, Endianness              : Big
Codec ID                                 : A_AC3
Duration                                 : 1h 32mn
Bit rate mode                            : Constant
Bit rate                                 : 448 Kbps
Channel(s)                               : 6 channels
Channel positions                        : Front: L C R, Side: L R, LFE
Sampling rate                            : 48.0 KHz
Bit depth                                : 16 bits
Compression mode                         : Lossy
Stream size                              : 296 MiB (12%)
Language                                 : English
Default                                  : No
Forced                                   : No

Text #1
ID                                       : 4
Format                                   : UTF-8
Codec ID                                 : S_TEXT/UTF8
Codec ID/Info                            : UTF-8 Plain Text
Default                                  : Yes
Forced                                   : No

Text #2
ID                                       : 5
Format                                   : UTF-8
Codec ID                                 : S_TEXT/UTF8
Codec ID/Info                            : UTF-8 Plain Text
Language                                 : English
Default                                  : No
Forced                                   : No

Menu
00:00:00.000                             : en:00:00:00.000
00:04:55.420                             : en:00:04:55.420
00:08:29.426                             : en:00:08:29.426
00:11:38.865                             : en:00:11:38.865
00:15:10.576                             : en:00:15:10.576
00:18:10.673                             : en:00:18:10.673
00:21:54.146                             : en:00:21:54.146
00:26:25.501                             : en:00:26:25.501
00:30:04.970                             : en:00:30:04.970
00:33:56.117                             : en:00:33:56.117
00:38:16.920                             : en:00:38:16.920
00:43:06.542                             : en:00:43:06.542
00:49:36.849                             : en:00:49:36.849
00:52:46.789                             : en:00:52:46.789
00:56:46.194                             : en:00:56:46.194
01:01:15.964                             : en:01:01:15.964
01:05:53.575                             : en:01:05:53.575
01:11:51.057                             : en:01:11:51.057
01:18:19.486                             : en:01:18:19.486
01:25:07.394                             : en:01:25:07.394

За українську доріжку подяка Skiff

Джерело: &
Особиста оцінка: 0 - не дивився


 Трекер:    Зареєстрований   

Завантажити / скачати мультфільм українською



відео для новачків



 Зареєстрований:   2013-02-14 00:36
 Розмір:   2.49 GB 
 Оцінка мультфільму:   9.7/10 (Голосів: 22)
   
Інші релізи
   Паранорман / ParaNorman (2012) 2xUkr/Eng | sub Ukr/Eng kicyunya  10 / 0   2.18 GB   2017-01-10 03:27 
   Паранорман / ParaNorman (2012) 1080p 3D Ukr/Eng | Sub Ukr/Eng [Half OverUnder] -VipeR-  0 / 0   4.68 GB   2016-02-24 14:15 
   Паранорман / ParaNorman (2012) 1080p Ukr/Eng | Sub Ukr/Eng igor911  5 / 0   4.37 GB   2013-02-13 20:40 
   Паранорман / ParaNorman (2012) Ukr/Eng | sub Ukr/Eng Skiff  4 / 0   1.74 GB   2013-02-13 15:26 
igor911 
Відео Гуртом
Відео Гуртом


З нами з: 18.01.08
Востаннє: 27.05.17
Повідомлень: 6788

2013-02-13 20:43  
Виклав 1080р - https://toloka.to/t44045
BGD-2012 
Свій


З нами з: 06.05.12
Востаннє: 03.02.17
Повідомлень: 77

2015-12-12 21:30  
Класний анімаційний мульт. Ідея та реалізація супер. Дякую. Завантажуй українською!
Ваш часовий пояс: GMT + 2 Години

Нова тема   Відповісти