Монстри на канікулах / Hotel Transylvania (2012) 1080p 3D OverUnder Ukr/Eng

Нові коментарі

Нова тема   Відповісти
Автор Повідомлення
dinosaurus 
Частий відвідувач


З нами з: 13.12.10
Востаннє: 17.07.17
Повідомлень: 36

2013-01-29 21:29  
Монстри на канікулах / Hotel Transylvania (2012) 1080p 3D OverUnder Ukr/Eng

Монстри на канікулах / Hotel Transylvania (2012) 1080p 3D OverUnder Ukr/Eng


Жанр: анімація, комедія, сімейний
Країна: США



Кіностудія / кінокомпанія: Columbia Pictures, Sony Pictures Animation
Режисер: Геннадій Тартаковський
Актори: Адам Сендлер, Селена Ґомез, Стів Бушемі, Кевін Джеймс, Девід Спейд, Енді Семберґ, Френ Дрешер та інші.

Сюжет:
Мейвіс - дочка графа Дракули закохується у хлопця-туриста Саймона, що з цікавості забрів у замок її батька, ніхто не знає що буде далі та чим це закінчиться, хоча ні... відомо, що далі буде весело та закінчиться усе добре


Тривалість: 01:31:31
Якість:
Відео:
кодек:
розмір кадру: 1920 х 1080
бітрейт: 12,3 МБ/с

Аудіо # 1:
мова: українська
переклад: професійний дубльований
кодек: 5.1
бітрейт: 640 кб/с

Аудіо # 2:
мова: англійська
переклад: оригінал
кодек: 5.1
бітрейт: 640 кб/с

Джерело озвучення:
Info
General
Unique ID : 183020345080793903593558758848034138662 (0x89B06FB1823D9B448A2B9859BA326A26)
Complete name : D:\film\animation\Hotel.Transylvania.3D.2012.BDRip1080p.OverUnder.
Format :
Format version : Version 4 / Version 2
File size : 8.67 GiB
Duration : 1h 31mn
Overall bit rate : 13.6 Mbps
Movie name : Hotel Transylvania 3D (2012) by HDMaNiAcS
Encoded date : UTC 2013-01-27 09:01:48
Writing application : mkvmerge v6.0.0 ('Coming Up For Air') built on Jan 20 2013 09:52:00
Writing library : libebml v1.3.0 + libmatroska v1.4.0

Video
ID : 1
Format : AVC
Format/Info : Advanced Video Codec
Format profile : [email protected]
Format settings, CABAC : Yes
Format settings, ReFrames : 4 frames
Codec ID : V_MPEG4/ISO/AVC
Duration : 1h 31mn
Bit rate : 12.3 Mbps
Width : 1 920 pixels
Height : 1 080 pixels
Display aspect ratio : 16:9
Frame rate mode : Constant
Frame rate : 23.976 fps
Color space : YUV
Chroma subsampling : 4:2:0
Bit depth : 8 bits
Scan type : Progressive
Bits/(Pixel*Frame) : 0.247
Stream size : 7.68 GiB (89%)
Title : Hotel Transylvania 3D (2012)
Writing library : core 129 r2230 1cffe9f
Encoding settings : cabac=1 / ref=4 / deblock=1:-2:-2 / analyse=0x3:0x113 / me=tesa / subme=11 / psy=1 / psy_rd=0.90:0.00 / mixed_ref=1 / me_range=48 / chroma_me=1 / trellis=2 / 8x8dct=1 / cqm=0 / deadzone=21,11 / fast_pskip=0 / chroma_qp_offset=-2 / threads=12 / lookahead_threads=2 / sliced_threads=0 / nr=0 / decimate=0 / interlaced=0 / bluray_compat=0 / constrained_intra=0 / bframes=8 / b_pyramid=2 / b_adapt=2 / b_bias=0 / direct=3 / weightb=1 / open_gop=0 / weightp=2 / keyint=250 / keyint_min=23 / scenecut=40 / intra_refresh=0 / rc=2pass / mbtree=0 / bitrate=12300 / ratetol=1.0 / qcomp=0.60 / qpmin=0 / qpmax=69 / qpstep=4 / cplxblur=20.0 / qblur=0.5 / frame-packing=4 / ip_ratio=1.40 / pb_ratio=1.30 / aq=1:0.70
Language : English
Default : Yes
Forced : No

Audio #1
ID : 2
Format : AC-3
Format/Info : Audio Coding 3
Mode extension : CM (complete main)
Format settings, Endianness : Big
Codec ID : A_AC3
Duration : 1h 31mn
Bit rate mode : Constant
Bit rate : 640 Kbps
Channel(s) : 6 channels
Channel positions : Front: L C R, Side: L R, LFE
Sampling rate : 48.0 KHz
Bit depth : 16 bits
Compression mode : Lossy
Stream size : 419 MiB (5%)
Title : / 5.1 ch / 640 kbps / Український дубляж BD CEE
Language : Ukrainian
Default : No
Forced : No

Audio #2
ID : 3
Format : AC-3
Format/Info : Audio Coding 3
Mode extension : CM (complete main)
Format settings, Endianness : Big
Codec ID : A_AC3
Duration : 1h 31mn
Bit rate mode : Constant
Bit rate : 640 Kbps
Channel(s) : 6 channels
Channel positions : Front: L C R, Side: L R, LFE
Sampling rate : 48.0 KHz
Bit depth : 16 bits
Compression mode : Lossy
Stream size : 419 MiB (5%)
Title : / 5.1 ch / 640 kbps / Англійский original BD CEE
Language : English
Default : No
Forced : No
Скріншоти








Джерело:
Особиста оцінка: 10 - без зайвих вагань рекомендую всім!


 Трекер:    Зареєстрований   

Завантажити / скачати мультфільм українською



відео для новачків



 Зареєстрований:   2013-01-29 21:29
 Розмір:   8.67 GB 
 Оцінка мультфільму:   9.7/10 (Голосів: 24)
   
Rami 
Частий відвідувач


З нами з: 16.06.10
Востаннє: 03.08.17
Повідомлень: 29

2013-01-30 13:14  
полювати на вампірів??? еее, це щось ви перепутали напевно...
опис треба підкоригувати..

dinosaurus 
Частий відвідувач


З нами з: 13.12.10
Востаннє: 17.07.17
Повідомлень: 36

2013-01-31 10:33  
vvrwolf написано:

полювати на вампірів??? еее, це щось ви перепутали напевно...

опис треба підкоригувати..

Вірно, треба бути уважнішим Wink (2)
Уже підкориговую

Додано через 8 хвилин 21 секунду:

PS: Мій грішок, не маючи ні талантів письменника ні навіть копірайтера, я просто скопіював опис

slvhome 
Свій


З нами з: 03.04.08
Востаннє: 17.08.17
Повідомлень: 127

2013-02-02 13:44  
Чудовий мульт. Із задоволенням подивились всією сім'єю. Класна якість. Дякую!!!
гобой 
Новенький


З нами з: 08.01.12
Востаннє: 19.08.17
Повідомлень: 24

2013-02-03 14:28  
Дякую за якість))
dinosaurus 
Частий відвідувач


З нами з: 13.12.10
Востаннє: 17.07.17
Повідомлень: 36

2013-02-04 00:04  
slvhome написано:
Чудовий мульт. Із задоволенням подивились всією сім'єю. Класна якість. Дякую!!!

гобой написано:
Дякую за якість))

Будь-ласка, мені цей мульт дуже сподобався, і я радий, що зміг ним поділитись

Vasil-13 
Новенький


З нами з: 25.10.09
Востаннє: 21.01.17
Повідомлень: 15

2013-03-25 20:09  
Люди, будьте людьми )), станьте на роздачу.
slvhome 
Свій


З нами з: 03.04.08
Востаннє: 17.08.17
Повідомлень: 127

2013-05-06 09:16  
Мульт файний. Дивились всією сім'єю із задоволенням.
Serhiystar 
Новенький


З нами з: 17.09.14
Востаннє: 09.08.17
Повідомлень: 1

2016-03-30 20:04  
Хлопця- туриста звати Джонні, а не Саймон. Дякую за якість.
QWERTYJJJJJJ 
Поважний учасник


З нами з: 06.11.12
Востаннє: 19.08.17
Повідомлень: 203

2016-05-18 10:45  
Формат 3D не OverUnder, а HalfOverUnder
Ваш часовий пояс: GMT + 2 Години

Нова тема   Відповісти