AC/DC: Хай тут буде Рок / AC/DC: Let There Be Rock (1980) 720p Eng | Sub Multi

Нові коментарі

Нова тема   Відповісти
Автор Повідомлення
The_Marlboro 
Відео Гуртом - субтитрування
Відео Гуртом - субтитрування


З нами з: 23.05.10
Востаннє: 17.08.17
Повідомлень: 2972

2013-01-28 15:46  
AC/DC: Хай тут буде Рок / AC/DC: Let There Be Rock (1980) 720p Eng | Sub Multi





Жанр: документальний, музичний
Країна: США, Франція



Кіностудія / кінокомпанія: High Speed Productions, Sebastian International
Режисер: Ерік Діонісиус, Ерік Містлер
Актори: Філ Рад, Бон Скотт, Кліф Вільямс, Ангус Янг, Малкольм Янг

Сюжет:
Концерт легендарного гурту у Парижі.

    Треклист:
    01. Live Wire
    02. Shot Down In Flames
    03. Hell Ain't A Bad Place To Be
    04. Sin City
    05. Walk All Over You
    06. Bad Boy Boogie
    07. The Jack
    08. Highway To Hell
    09. Girls Got Rhythm
    10. High Voltage
    11. Whole Lotta Rosie
    12. Rocker
    13. Let There Be Rock


Тривалість: 01:37:56
Якість: 720p
Відео:
кодек:
розмір кадру: 988x720
бітрейт: 5686 кб/с

Аудіо:
мова: англійська
переклад: оригінал
кодек: 5.1
бітрейт: 640 кб/с

Субтитри:
мова: English (SDH), German (SDH), French, Spanish, Spanish-Castilian, Portuguese, Italian (SDH), Czech, Українська (власний переклад з англійської)
тип: програмні (м'які)
формат:*srt

Media Info
General
Unique ID : 250002493665095542868888926751810188812 (0xBC14BA975CCE26E7AA24DE7355CCF60C)
Complete name : D:\Медіа\Відео\Трейлери та інше\AC DC Let There Be Rock (1980) [Eng, Sub Ukr] 720p[Hurtom&HDClub] by The_Marlboro\AC DC Let There Be Rock (1980) [Eng, Sub Ukr] 720p[Hurtom&HDClub] by The_Marlboro.
Format :
Format version : Version 2
File size : 4.33 GiB
Duration : 1h 37mn
Overall bit rate : 6 323 Kbps
Movie name : "AC/DC.Let.There.Be.Rock.1980.720p.BluRay.DD5.1.-DON"
Encoded date : UTC 2012-01-01 15:37:06
Writing application : mkvmerge v5.0.1 ('Es ist Sommer') built on Oct 9 2011 11:55:43
Writing library : libebml v1.2.2 + libmatroska v1.3.0

Video
ID : 1
Format : AVC
Format/Info : Advanced Video Codec
Format profile : [email protected]
Format settings, CABAC : Yes
Format settings, ReFrames : 11 frames
Codec ID : V_MPEG4/ISO/AVC
Duration : 1h 37mn
Bit rate : 5 686 Kbps
Width : 988 pixels
Height : 720 pixels
Display aspect ratio : 1.372
Frame rate : 23.976 fps
Color space : YUV
Chroma subsampling : 4:2:0
Bit depth : 8 bits
Scan type : Progressive
Bits/(Pixel*Frame) : 0.333
Stream size : 3.80 GiB (88%)
Title : AC/DC: Let There Be Rock 1980 720p BluRay DD5.1 -DON
Writing library : core 120 r2120+639 552713c
Encoding settings : cabac=1 / ref=11 / deblock=1:-3:-3 / analyse=0x3:0x133 / me=tesa / subme=10 / psy=1 / fade_compensate=0.60 / psy_rd=1.00:0.05 / mixed_ref=1 / me_range=24 / chroma_me=1 / trellis=2 / 8x8dct=1 / cqm=0 / deadzone=21,11 / fast_pskip=0 / chroma_qp_offset=-3 / threads=6 / sliced_threads=0 / nr=0 / decimate=1 / interlaced=0 / bluray_compat=0 / constrained_intra=0 / fgo=0 / bframes=7 / b_pyramid=2 / b_adapt=2 / b_bias=0 / direct=3 / weightb=1 / open_gop=0 / weightp=2 / keyint=250 / keyint_min=23 / scenecut=40 / intra_refresh=0 / rc_lookahead=150 / rc=2pass / mbtree=1 / bitrate=5686 / ratetol=1.0 / qcomp=0.75 / qpmin=0 / qpmax=69 / qpstep=4 / cplxblur=20.0 / qblur=0.5 / vbv_maxrate=50000 / vbv_bufsize=62500 / nal_hrd=none / ip_ratio=1.40 / aq=1:0.90
Language : English

Audio
ID : 2
Format : AC-3
Format/Info : Audio Coding 3
Mode extension : CM (complete main)
Codec ID : A_AC3
Duration : 1h 37mn
Bit rate mode : Constant
Bit rate : 640 Kbps
Channel(s) : 6 channels
Channel positions : Front: L C R, Side: L R, LFE
Sampling rate : 48.0 KHz
Bit depth : 16 bits
Compression mode : Lossy
Stream size : 448 MiB (10%)
Title : English DD5.1
Language : English

Text #1
ID : 3
Format : UTF-8
Codec ID : S_TEXT/UTF8
Codec ID/Info : UTF-8 Plain Text
Title : English SDH
Language : English

Text #2
ID : 4
Format : UTF-8
Codec ID : S_TEXT/UTF8
Codec ID/Info : UTF-8 Plain Text
Title : German SDH
Language : German

Text #3
ID : 5
Format : UTF-8
Codec ID : S_TEXT/UTF8
Codec ID/Info : UTF-8 Plain Text
Title : French
Language : French

Text #4
ID : 6
Format : UTF-8
Codec ID : S_TEXT/UTF8
Codec ID/Info : UTF-8 Plain Text
Title : Spanish - Castilian
Language : Spanish

Text #5
ID : 7
Format : UTF-8
Codec ID : S_TEXT/UTF8
Codec ID/Info : UTF-8 Plain Text
Title : Spanish
Language : Spanish

Text #6
ID : 8
Format : UTF-8
Codec ID : S_TEXT/UTF8
Codec ID/Info : UTF-8 Plain Text
Title : Portuguese
Language : Portuguese

Text #7
ID : 9
Format : UTF-8
Codec ID : S_TEXT/UTF8
Codec ID/Info : UTF-8 Plain Text
Title : Italian SDH
Language : Italian

Text #8
ID : 10
Format : UTF-8
Codec ID : S_TEXT/UTF8
Codec ID/Info : UTF-8 Plain Text
Title : Czech
Language : Czech

Menu
00:00:00.000 : :00:00:00.000
00:00:19.019 : :00:00:19.019
00:04:38.862 : :00:04:38.862
00:08:33.638 : :00:08:33.638
00:09:43.625 : :Live Wire
00:16:04.797 : :Shot Down in Flames
00:19:40.179 : :Hell Ain't a Bad Place to Be
00:23:50.554 : :Sin City
00:29:45.033 : :Walk All Over You
00:35:17.365 : :Bad Boy Boogie
00:48:15.518 : :The Jack
00:53:54.231 : :00:53:54.231
00:56:12.286 : :Highway to Hell
00:59:22.350 : :Girls Got Rhythm
01:02:48.974 : :High Voltage
01:09:02.597 : :01:09:02.597
01:13:37.371 : :Whole Lotta Rosie
01:18:41.550 : :Rocker
01:28:01.568 : :Let There Be Rock
01:35:12.707 : :01:35:12.707
Скріншоти








Джерело:
Особиста оцінка: 10 - це офігенно! Хотілося б мати машину часу


Золотий реліз (завантажене не впливає на рейтинг)
 Трекер:    Зареєстрований   

Завантажити / скачати фільм українською



відео для новачків



 Зареєстрований:   2013-01-30 19:48
 Розмір:   4.33 GB 
 Оцінка фільму:   10/10 (Голосів: 9)
   
kolomoez12 
Новенький


З нами з: 16.10.12
Востаннє: 14.03.17
Повідомлень: 2

2013-01-28 16:59  
коли реліз то ?
The_Marlboro 
Відео Гуртом - субтитрування
Відео Гуртом - субтитрування


З нами з: 23.05.10
Востаннє: 17.08.17
Повідомлень: 2972

2013-01-28 17:03  
ну переклад вже готовий, коли роздам попередній реліз, тоді це викладу
Forward! 
VIP


З нами з: 27.11.11
Востаннє: 15.08.17
Повідомлень: 446

2013-01-28 19:31  
Ого! Це те видання, де розповідається про життя групи з Боном? Давно скачав це відео, але рос. мовою, але ця вада - мінімальна, бо головне - музика!

Додано через 6 хвилин 20 секунд:

The_Marlboro, це твій власний скан з купленого БД (ДВД)?

YaWrangler 
Поважний учасник


З нами з: 29.07.12
Востаннє: 05.08.17
Повідомлень: 249

2013-01-28 20:33  
Сам переклад розмов під час концерту українською??
The_Marlboro 
Відео Гуртом - субтитрування
Відео Гуртом - субтитрування


З нами з: 23.05.10
Востаннє: 17.08.17
Повідомлень: 2972

2013-01-29 01:06  
YaWrangler написано:
Сам переклад розмов під час концерту українською??

Там крім розмов під час концерту є документальні вставки. Загалом тих вставок десь хвилин 20-30. Там в основному учасники гурту відповідають на різні питання. І найбільше там говорить Бон.

Forward! написано:
The_Marlboro, це твій власний скан з купленого БД (ДВД)?

постер з movieposterdb.com, до речі, колись тримав БД в руках, треба було б купити...

POMEO 
Відео Гуртом - запис з ТБ
Відео Гуртом - запис з ТБ


З нами з: 01.07.08
Востаннє: 17.08.17
Повідомлень: 831

2013-01-29 10:32  
Цікаво буде глянути про АЦе-блискавка-ДеЦе )
The_Marlboro 
Відео Гуртом - субтитрування
Відео Гуртом - субтитрування


З нами з: 23.05.10
Востаннє: 17.08.17
Повідомлень: 2972

2013-01-29 14:11  
Реліз в сд якості: https://toloka.to/t43486#535865
bot 
робот


З нами з: 30.09.07
Востаннє: 26.05.05
Повідомлень: 17363

2013-01-30 19:45  
The_Marlboro 
Відео Гуртом - субтитрування
Відео Гуртом - субтитрування


З нами з: 23.05.10
Востаннє: 17.08.17
Повідомлень: 2972

2013-01-30 21:51  
Народ роздаватиму цілодобово, але довго, наберіться терпіння.
П.С. я не редагував відео, тому його можна стягнути з джерела - має бути швидше.

YaWrangler 
Поважний учасник


З нами з: 29.07.12
Востаннє: 05.08.17
Повідомлень: 249

2013-01-30 23:30  
Дайте золото!!!))
The_Marlboro 
Відео Гуртом - субтитрування
Відео Гуртом - субтитрування


З нами з: 23.05.10
Востаннє: 17.08.17
Повідомлень: 2972

2013-01-30 23:50  
YaWrangler написано:
Дайте золото!!!))

буде коли модери доберуться до релізу

evpdzen 
Поважний учасник


З нами з: 17.03.10
Востаннє: 15.08.17
Повідомлень: 186

2013-02-01 19:24  
'fourteen roadies' це не "чотирнадцять шосейників".
Roadie = road manager, a person employed by a touring band of musicians to set up and maintain equipment.

krot77 
Новенький


З нами з: 16.02.10
Востаннє: 06.08.17
Повідомлень: 7

2016-01-06 19:13  
Дайте, будь-ласка, швидкості. Пішов третій місяць скачування.
Ваш часовий пояс: GMT + 2 Години

Нова тема   Відповісти