Монстри на канікулах / Hotel Transylvania (2012) 1080p-mini Ukr/Eng | Sub Eng

Нові коментарі

Нова тема   Відповісти
Автор Повідомлення
Anonymous 







2013-01-28 13:11  
Монстри на канікулах / Hotel Transylvania (2012) 1080p-mini Ukr/Eng | Sub Eng

Монстри на канікулах / Hotel Transylvania (2012) 1080p-mini Ukr/Eng | Sub Eng


Жанр: анімація, комедія, сімейний
Країна: США



Кіностудія / кінокомпанія: Columbia Pictures, Sony Pictures Animation
Режисер: Геннадій Тартаковський
Актори: Адам Сендлер, Селена Ґомез, Стів Бушемі, Кевін Джеймс, Девід Спейд, Енді Семберґ, Френ Дрешер та інші

Сюжет:
Граф Дракула для себе і своєї улюбленої доньки побудував добре захований від сторонніх очей готель, куди монстри з усього світу приїжджають відпочити від сімейних турбот, повсякденних проблем і, звичайно ... людей. Але всюдисущі американські туристи проникають і сюди.


Тривалість: 01:31:31
Якість: 1080p-mini
Відео: ріп від AlexKa
кодек:
розмір кадру: 1920x1040
бітрейт: 5750 кб/с

Аудіо # 1:
мова: українська
переклад: професійний дубльований (LeDoyen, Blu-ray CEE)
кодек: 5.1
бітрейт: 640 кб/с

Аудіо # 2:
мова: англійська
переклад: оригінал
кодек: 5.1
бітрейт: 448 кб/с

Субтитри:
мова: англійська (повні)
тип: програмні (м'які)
формат: *.srt

Збережено оригінальні розділи, як на Blu-ray
Info
General
Unique ID : 182203570110449695643076001797810180447 (0x89132194077E4DB6ADBC357BE650515F)
Complete name : Hotel.Transylvania.2012..1080p.Ukr.Eng.
Format :
Format version : Version 4 / Version 2
File size : 4.37 GiB
Duration : 1h 31mn
Overall bit rate : 6 840 Kbps
Movie name : Монстри на канікулах / Hotel Transylvania (2012)
Encoded date : UTC 2013-01-28 07:30:56
Writing application : mkvmerge v6.0.0 ('Coming Up For Air') built on Jan 20 2013 09:52:00
Writing library : libebml v1.3.0 + libmatroska v1.4.0

Video
ID : 1
Format : AVC
Format/Info : Advanced Video Codec
Format profile : [email protected]
Format settings, CABAC : Yes
Format settings, ReFrames : 4 frames
Codec ID : V_MPEG4/ISO/AVC
Duration : 1h 31mn
Bit rate : 5 750 Kbps
Width : 1 920 pixels
Height : 1 040 pixels
Display aspect ratio : 1.85:1
Frame rate mode : Constant
Frame rate : 23.976 fps
Color space : YUV
Chroma subsampling : 4:2:0
Bit depth : 8 bits
Scan type : Progressive
Bits/(Pixel*Frame) : 0.120
Stream size : 3.59 GiB (82%)
Title : rip by AlexKa
Writing library : core 129 r2245 bc13772
Encoding settings : cabac=1 / ref=4 / deblock=1:0:0 / analyse=0x3:0x133 / me=umh / subme=10 / psy=1 / psy_rd=1.00:0.00 / mixed_ref=1 / me_range=32 / chroma_me=1 / trellis=2 / 8x8dct=1 / cqm=0 / deadzone=21,11 / fast_pskip=0 / chroma_qp_offset=-2 / threads=12 / lookahead_threads=2 / sliced_threads=0 / nr=0 / decimate=0 / interlaced=0 / bluray_compat=0 / constrained_intra=0 / bframes=5 / b_pyramid=2 / b_adapt=2 / b_bias=0 / direct=3 / weightb=1 / open_gop=0 / weightp=2 / keyint=240 / keyint_min=23 / scenecut=40 / intra_refresh=0 / rc_lookahead=120 / rc=2pass / mbtree=1 / bitrate=5750 / ratetol=1.0 / qcomp=0.60 / qpmin=0 / qpmax=69 / qpstep=4 / cplxblur=20.0 / qblur=0.5 / ip_ratio=1.40 / aq=1:0.70
Language : English
Default : Yes
Forced : No

Audio #1
ID : 2
Format : AC-3
Format/Info : Audio Coding 3
Mode extension : CM (complete main)
Format settings, Endianness : Big
Codec ID : A_AC3
Duration : 1h 31mn
Bit rate mode : Constant
Bit rate : 640 Kbps
Channel(s) : 6 channels
Channel positions : Front: L C R, Side: L R, LFE
Sampling rate : 48.0 KHz
Bit depth : 16 bits
Compression mode : Lossy
Stream size : 419 MiB (9%)
Title : Dub Blu-ray CEE
Language : Ukrainian
Default : Yes
Forced : No

Audio #2
ID : 3
Format : AC-3
Format/Info : Audio Coding 3
Mode extension : CM (complete main)
Format settings, Endianness : Big
Codec ID : A_AC3
Duration : 1h 31mn
Bit rate mode : Constant
Bit rate : 448 Kbps
Channel(s) : 6 channels
Channel positions : Front: L C R, Side: L R, LFE
Sampling rate : 48.0 KHz
Bit depth : 16 bits
Compression mode : Lossy
Stream size : 293 MiB (7%)
Title : Original
Language : English
Default : No
Forced : No

Text
ID : 4
Format : UTF-8
Codec ID : S_TEXT/UTF8
Codec ID/Info : UTF-8 Plain Text
Title : Eng Full
Language : English
Default : No
Forced : No

Menu
00:00:00.000 : :Chapter 01
00:04:49.371 : :Chapter 02
00:10:23.789 : :Chapter 03
00:14:19.275 : :Chapter 04
00:19:25.497 : :Chapter 05
00:25:11.217 : :Chapter 06
00:29:49.411 : :Chapter 07
00:35:50.815 : :Chapter 08
00:41:11.635 : :Chapter 09
00:46:29.536 : :Chapter 10
00:53:50.226 : :Chapter 11
00:57:44.794 : :Chapter 12
01:04:15.268 : :Chapter 13
01:08:48.499 : :Chapter 14
01:15:20.599 : :Chapter 15
01:18:50.642 : :Chapter 16

[info]: frame I:1160 Avg QP:15.09 size:210981
[info]: frame P:39103 Avg QP:18.80 size: 58937
[info]: frame B:91401 Avg QP:21.52 size: 15288


Чудова якість відео і чудовий розмір - 4,37 Гб - влазить на звичайний DVD-R/RW диск (DVD-5)!


 Трекер:    Зареєстрований   

Завантажити / скачати мультфільм українською



відео для новачків



 Зареєстрований:   2013-01-28 13:11
 Розмір:   4.37 GB 
 Оцінка мультфільму:   7.9/10 (Голосів: 43)
   
Anonymous 







2013-01-28 13:18  
del
kymvasa 
Новенький


З нами з: 23.09.10
Востаннє: 14.04.17
Повідомлень: 13

2013-01-28 17:50  
Прикольний мультик

Всім раджу глянути Rolleyes (1)

and1707 
Поважний учасник


З нами з: 28.09.11
Востаннє: 23.08.17
Повідомлень: 170

2013-01-28 22:57  
igor911, вибачте будь-ласка, можливо, за тупе питання, але як . записати на DVD, щоб потім він програвався на звичайних DVD-плеєрах?? P.S. Досі записував тільки .avi Rolleyes (4)
Ігор Вінський 
VIP


З нами з: 17.03.11
Востаннє: 22.08.17
Повідомлень: 362

2013-01-28 23:06  
Записати, звісно можна. Але програватись буде тільки на "просунутих" плеєрах. Тому раджу почитати у інструкції з експлуатації що ваш апарат відтворює.
and1707 
Поважний учасник


З нами з: 28.09.11
Востаннє: 23.08.17
Повідомлень: 170

2013-01-28 23:13  
вінськийігор, ясно, напевно найпросунутіші зараз BD плеєри, але поки таким не володію. Дякую за відповідь..
Anonymous 







2013-01-28 23:34  
Чудово програється на плеєрі DEX DVP-280. 1080p прямо з DVD-R, HDD, флешок та SD карт, звичайно ж читає і звичайні авішки, є HDMI. Брав рік тому десь за 500 грн, мабуть зараз є щось крутіше за ці гроші. Я ж взяв його до нового телека через велику колекцію дисків, що є у мене.
Цей ріп оптимальний за співвідношенням розмір/якість (анімація краще стискається, ніж фільми) навіть для тих, хто не має такого плеєра.

Vovka morkovka 
Свій


З нами з: 24.11.10
Востаннє: 10.08.17
Повідомлень: 72

2013-04-14 13:15  
А як зрозуміти відео 1080р-mini? Я просто знаю про відео 1080р, а про таке не чув!
Anonymous 







2013-04-14 17:23  
Vovka morkovka написано:
А як зрозуміти відео 1080р-mini?

Так раніше у розділі HD називалися релізи з розміром під DVD-5 або менше. Зараз через підняття мінімального значення параметра Bits/(Pixel*Frame) до 0.14 для мультів та 0.18 для фільмів та вимоги обов"язкової присутності оригінальної доріжки таких релізів у 1080p майже не буде, а ті що будуть - без приставки -міні.

BGD-2012 
Свій


З нами з: 06.05.12
Востаннє: 05.08.17
Повідомлень: 77

2015-12-12 21:27  
Прикольний мультфільм. Сподобався. Рекомендую усім.
Ваш часовий пояс: GMT + 2 Години

Нова тема   Відповісти