Tomato Jaws - Feel Me (2010) [FLAC] | Electronic

Нові коментарі

Нова тема   Відповісти
Останній раз роздавалося ssTAss (2017-05-17)
Автор Повідомлення
muhomor 
VIP


З нами з: 04.12.11
Востаннє: 01.06.17
Повідомлень: 297

2013-01-23 11:56  
Tomato Jaws - Feel Me (2010) [FLAC] | Electronic

Tomato Jaws - Feel Me (2010) [FLAC] | Electronic


Стиль: Electronic
Країна, місто: Україна, Київ
Сайти: Офіційний сайт
Видавець: MOON Records
Виконавці:
Alex Junior (Олександр Жижченко) - синтезатори, семплери
Playone (Павло Ленченко) - синтезатори, семплери
Nata Tomata (Ната Жижченко) - вокал
Пісні:
    01. I Can Breathe
    02. Never Let U Down
    03. Innocent
    04. Why Don’t You
    05. Dreaming Of You
    06. Grass
    07. Simple Place 2010
    08. Hope
    09. Feel Me
    10. Due To You
    11. Plakala
    12. Стяги На Стяги (feat. Бумбокс)

    Відео:
    Feel Me

    Тривалість: 00:03:01
    Якість:
    Відео:
    кодек: MPEG-4 (DivX 5)
    розмір кадру: 720x400
    бітрейт: 4008 кб/с

    Аудіо:
    мова: англійська
    кодек: MP3
    бітрейт: 160 кб/с
    Скріншоти:
Audiochecker


AUDIOCHECKER v2.0 beta (build 457) - by Dester - [email protected]
~~~~~~~~~~~~~~~~~~~~~~~~~~~~~~~~~~

Started at: среда, 23. 01. 2013. - 10:47.12
12 files found

01 -===- D:\hurtom.com\=Tomato Jaws - «Feel Me» (2010) (FLAC)\01 Tomato Jaws I Can Breathe.flac
Extracted successfully
Conclusion: this track is CDDA with probability 100%
Tempfile successfully deleted.

02 -===- D:\hurtom.com\=Tomato Jaws - «Feel Me» (2010) (FLAC)\02 Tomato Jaws Never Let U Down.flac
Extracted successfully
Conclusion: this track is CDDA with probability 100%
Tempfile successfully deleted.

03 -===- D:\hurtom.com\=Tomato Jaws - «Feel Me» (2010) (FLAC)\03 Tomato Jaws Innocent.flac
Extracted successfully
Conclusion: this track is CDDA with probability 100%
Tempfile successfully deleted.

04 -===- D:\hurtom.com\=Tomato Jaws - «Feel Me» (2010) (FLAC)\04 Tomato Jaws Why Don't You.flac
Extracted successfully
Conclusion: this track is CDDA with probability 100%
Tempfile successfully deleted.

05 -===- D:\hurtom.com\=Tomato Jaws - «Feel Me» (2010) (FLAC)\05 Tomato Jaws Dreaming Of You.flac
Extracted successfully
Conclusion: this track is CDDA with probability 100%
Tempfile successfully deleted.

06 -===- D:\hurtom.com\=Tomato Jaws - «Feel Me» (2010) (FLAC)\06 Tomato Jaws Grass.flac
Extracted successfully
Conclusion: this track is CDDA with probability 100%
Tempfile successfully deleted.

07 -===- D:\hurtom.com\=Tomato Jaws - «Feel Me» (2010) (FLAC)\07 Tomato Jaws Simple Place 2010.flac
Extracted successfully
Conclusion: this track is CDDA with probability 100%
Tempfile successfully deleted.

08 -===- D:\hurtom.com\=Tomato Jaws - «Feel Me» (2010) (FLAC)\08 Tomato Jaws Hope.flac
Extracted successfully
Conclusion: this track is CDDA with probability 100%
Tempfile successfully deleted.

09 -===- D:\hurtom.com\=Tomato Jaws - «Feel Me» (2010) (FLAC)\09 Tomato Jaws Feel Me.flac
Extracted successfully
Conclusion: this track is CDDA with probability 99%
Tempfile successfully deleted.

10 -===- D:\hurtom.com\=Tomato Jaws - «Feel Me» (2010) (FLAC)\10 Tomato Jaws Due To You.flac
Extracted successfully
Conclusion: this track is CDDA with probability 100%
Tempfile successfully deleted.

11 -===- D:\hurtom.com\=Tomato Jaws - «Feel Me» (2010) (FLAC)\11 Tomato Jaws Плакала.flac
Extracted successfully
Conclusion: this track is CDDA with probability 100%
Tempfile successfully deleted.

12 -===- D:\hurtom.com\=Tomato Jaws - «Feel Me» (2010) (FLAC)\12 Tomato Jaws Стяги На Стяги (feat. Бумбокс).flac
Extracted successfully
Conclusion: this track is CDDA with probability 100%
Tempfile successfully deleted.

Finished at: среда, 23. 01. 2013. - 10:53.24 (operation time: 0:06.12)
Log

Exact Audio Copy V1.0 beta 3 from 29. August 2011

Отчёт EAC об извлечении, выполненном 23. января 2013, 10:11

Tomato Jaws / Feel Me

Дисковод: ASUS DRW-2014S1T Adapter: 2 ID: 8

Режим чтения : Достоверность
Использование точного потока : Да
Отключение кэша аудио : Да
Использование указателей C2 : Нет

Коррекция смещения при чтении : 6
Способность читать области Lead-in и Lead-out : Нет
Заполнение пропущенных сэмплов тишиной : Да
Удаление блоков с тишиной в начале и конце : Нет
При вычислениях CRC использовались нулевые сэмплы : Да
Интерфейс : Встроенный Win32-интерфейс для Win NT/2000
Обработка зазоров : Добавлено к предыдущему треку

Выходной формат : Пользовательский кодировщик
Выбранный битрейт : 128 kBit/s
Качество : Высокий
Добавление ID3-тега : Нет
Утилита сжатия : C:\Program Files\Exact Audio Copy\Flac\flac.exe
Дополнительные параметры : -V -8 -T "Genre=%genre%" -T "Artist=%artist%" -T "Title=%title%" -T "Album=%albumtitle%" -T "Date=%year%" -T "Tracknumber=%tracknr%" -T "Comment=%comment%" %source%

TOC извлечённого CD

Трек | Старт | Длительность | Начальный сектор | Конечный сектор
---------------------------------------------------------------------
1 | 0:00.00 | 4:43.14 | 0 | 21238
2 | 4:43.14 | 6:08.66 | 21239 | 48904
3 | 10:52.05 | 4:59.24 | 48905 | 71353
4 | 15:51.29 | 3:45.66 | 71354 | 88294
5 | 19:37.20 | 5:07.55 | 88295 | 111374
6 | 24:45.00 | 2:27.36 | 111375 | 122435
7 | 27:12.36 | 5:32.61 | 122436 | 147396
8 | 32:45.22 | 5:27.65 | 147397 | 171986
9 | 38:13.12 | 3:04.25 | 171987 | 185811
10 | 41:17.37 | 5:33.53 | 185812 | 210839
11 | 46:51.15 | 4:00.67 | 210840 | 228906
12 | 50:52.07 | 4:26.74 | 228907 | 248930
13 | 57:51.06 | 10:20.30 | 260331 | 306860

Трек 1

Имя файла D:\Documents and Settings\user\Рабочий стол\«»—0–\01 Tomato Jaws I Can Breathe.wav

Длина предзазора 0:00:02.00

Пиковый уровень 100.0 %
Скорость извлечения 5.0 X
Качество трека 99.9 %
CRC теста BB6256C2
CRC копии BB6256C2
Копирование... OK

Трек 2

Имя файла D:\Documents and Settings\user\Рабочий стол\«»—0–\02 Tomato Jaws Never Let U Down.wav

Пиковый уровень 100.0 %
Скорость извлечения 6.4 X
Качество трека 100.0 %
CRC теста 35DDA6A3
CRC копии 35DDA6A3
Копирование... OK

Трек 3

Имя файла D:\Documents and Settings\user\Рабочий стол\«»—0–\03 Tomato Jaws Innocent.wav

Пиковый уровень 100.0 %
Скорость извлечения 6.9 X
Качество трека 100.0 %
CRC теста 3485380F
CRC копии 3485380F
Копирование... OK

Трек 4

Имя файла D:\Documents and Settings\user\Рабочий стол\«»—0–\04 Tomato Jaws Why Don't You.wav

Пиковый уровень 100.0 %
Скорость извлечения 7.1 X
Качество трека 100.0 %
CRC теста 00A03104
CRC копии 00A03104
Копирование... OK

Трек 5

Имя файла D:\Documents and Settings\user\Рабочий стол\«»—0–\05 Tomato Jaws Dreaming Of You.wav

Пиковый уровень 100.0 %
Скорость извлечения 7.1 X
Качество трека 99.9 %
CRC теста 4A8A700B
CRC копии 4A8A700B
Копирование... OK

Трек 6

Имя файла D:\Documents and Settings\user\Рабочий стол\«»—0–\06 Tomato Jaws Grass.wav

Пиковый уровень 100.0 %
Скорость извлечения 7.1 X
Качество трека 100.0 %
CRC теста BEE4D6DD
CRC копии BEE4D6DD
Копирование... OK

Трек 7

Имя файла D:\Documents and Settings\user\Рабочий стол\«»—0–\07 Tomato Jaws Simple Place 2010.wav

Пиковый уровень 100.0 %
Скорость извлечения 8.3 X
Качество трека 100.0 %
CRC теста 08D28FDA
CRC копии 08D28FDA
Копирование... OK

Трек 8

Имя файла D:\Documents and Settings\user\Рабочий стол\«»—0–\08 Tomato Jaws Hope.wav

Пиковый уровень 100.0 %
Скорость извлечения 8.7 X
Качество трека 100.0 %
CRC теста D8375ED4
CRC копии D8375ED4
Копирование... OK

Трек 9

Имя файла D:\Documents and Settings\user\Рабочий стол\«»—0–\09 Tomato Jaws Feel Me.wav

Пиковый уровень 100.0 %
Скорость извлечения 8.2 X
Качество трека 100.0 %
CRC теста C298EDFF
CRC копии C298EDFF
Копирование... OK

Трек 10

Имя файла D:\Documents and Settings\user\Рабочий стол\«»—0–\10 Tomato Jaws Due To You.wav

Пиковый уровень 100.0 %
Скорость извлечения 9.1 X
Качество трека 100.0 %
CRC теста 18EE1AC0
CRC копии 18EE1AC0
Копирование... OK

Трек 11

Имя файла D:\Documents and Settings\user\Рабочий стол\«»—0–\11 Tomato Jaws Плакала.wav

Пиковый уровень 100.0 %
Скорость извлечения 9.3 X
Качество трека 100.0 %
CRC теста 60C5EC42
CRC копии 60C5EC42
Копирование... OK

Трек 12

Имя файла D:\Documents and Settings\user\Рабочий стол\«»—0–\12 Tomato Jaws Стяги На Стяги (feat. Бумбокс).wav

Пиковый уровень 99.9 %
Скорость извлечения 9.0 X
Качество трека 100.0 %
CRC теста E6937D37
CRC копии E6937D37
Копирование... OK

Ошибок не произошло

Конец отчёта

==== Контрольная сумма отчёта 07492D43B29AECE17E218CA660589F4C5F336C564D1D32824D46A44005833785 ====
Тривалість: 00:49:07
Мова: українська (11,12), англійська (1-10)
Аудіо-кодек: FLAC
Бітрейт: 932 кб/с
Джерело: ріп із власного CD
Додаткова інформація:
Офіційно група Tomato Jaws була створена в 2000 році. Ініціатором створення тріо є Олександр Жижченко. Старший брат (сценічне ім'я Alex Junior) Нати Жижченко (другого учасника колективу).
У 2001 році, після закінчення естрадної кафедри Інституту культури і мистецтв, Alex Junior цікавився електронними напрямками, пізніше заснував свою школу електронної музики Innertion і звукозаписну студію під лейблом Innertion. У 2002 році пристрасть до електронної музики матеріалізувалося у створення колективу під назвою Tomato Jaws. Учасники група гастролювали по клубах України і записали перший студійний альбом –Tomato Jaws (2004). Колектив записав ще три альбоми: No Concept (2005), One Secret (2008), Feel Me (2010).


Якщо Ви справді бажаєте підтримати українське - після прослуховування, якщо музика вам сподобалась, придбайте ліцензійний диск. Підтримаймо вітчизняних виконавців!


Срібний реліз (на рейтинг впливає 50% завантаженого)
 Трекер:    Зареєстрований   

Завантажити / скачати українську музику



відео для новачків



 Зареєстрований:   2013-01-23 11:56
 Розмір:   461 MB 
 Оцінка музики:   8.5/10 (Голосів: 6)
   
Ваш часовий пояс: GMT + 2 Години

Нова тема   Відповісти