Шерлок (Сезон 1) / Sherlock (Season 1) (2010) 720p 2xUkr/Eng | Sub Eng

Нові коментарі

Нова тема   Відповісти
Автор Повідомлення
xfsthe 
Оцифрування книг Гуртом
Оцифрування книг Гуртом


З нами з: 13.02.11
Востаннє: 19.03.19
Повідомлень: 279

2013-01-22 22:51  
Шерлок (Сезон 1) / Sherlock (Season 1) (2010) 720p 2xUkr/Eng | Sub Eng

Шерлок (Сезон 1) / Sherlock (Season 1) (2010) 720p 2xUkr/Eng | Sub Eng


Жанр: детектив
Країна: Великобританія


Кінокомпанія / телеканал: BBC
Режисер: Юрос Лін, Пол Мак-Ґіґан
Актори: Бенедикт Камбербетч, Мартін Фріман, Уна Стаббс, Лу Брілі, Руперт Грейвс, Зої Телфорд, Вінетт Робінсон, Джемма Чан, Джині Спарк та ін.

Сюжет:
2010 рік. Військовий лікар Джон Ватсон повертається до Лондона після служби в Афганістані. Він став інвалідом після отриманого поранення, і абсолютно не уявляє, як прожити на військову пенсію, а тим паче зняти квартиру. Приятель радить Джону розділити витрати по зніманню квартири з ким-небудь ще. Він зводить його з ексцентричним приватним детективом на ім'я Шерлок, який грає на скрипці і може розповісти про співрозмовника все після двох хвилин спілкування ...


Тривалість: 1 серія: ~01:30:00 (цілком серій: 3)
Перелік серій

1. Етюд у рожевих тонах / A Study in Pink

Прем'єра: 25 липня 2010 (Україна: 15.01.2012)
Режисер: Пол Маꥳґан.
Сценарій: Стівен Моффат.
Сюжет: поліція розслідує смерть кількох людей, які вочевидь наклали на себе руки, прийнявши отруйну пігулку. Слідчий звертається до неофіційного консультанта Шерлока Холмса. Тим часом, військовий лікар Джон Ватсон, ветеран війни в Афганістані, повернувшись у Лондон, зустрічає свого старго друга і знайомиться з Шерлокомм. Холмс одразу вражає доктора своїми здібностями до аналізу і дедукції.
Основа: «Етюд у багряних тонах».

2. Сліпий банкір / The Blind Banker

Прем'єра: 1 серпня 2010 (Україна: 16.01.2012)
Режисер: Юрус Лін.
Сценарій: Стефен Томпсон.
Сюжет: старий друг Шерлока наймає його розслідувати містичне проникнення в банк у діловій частині Лондона. З'ясовується, що символи, які намальовані на стіні - це закодоване повідомлення одному з працівників банку, якого пізніше знаходять мертвим. Наступного дня помирає журналіст однієї з лондонських газет, і виявляється, що до його смерті також причетні загадкові символи.
Основа: «Танцюючі чоловічки», «Долина жаху» (епізод з книгою).

3. Велика гра / The Great Game

Прем'єра: 8 серпня 2010 (Україна: 17.01.2012)
Режисер: Пол Маꥳґан.
Сценарій: Марк Ґатіс.
Сюжет: Майкрофт намагається вмовити Шерлока взятися за розслідування підозрілої смерті урядового працівника, який був задіяний у дуже секретному проекті міністерства оборони - проект Брюса-Партінгтона. Але Шерлок відмовляється, доручивши цю справу Ватсону. Увагу Холмса привертає дещо інше. Невідомий злочинець розпочинає з ним небезпечну гру, ставки у якій життя безневинних людей.
Основа: «Остання справа Холмса», «Креслення Брюса-Партінгтона», «Морський договір», «П'ять апельсинових зерняток».
Якість: 720p
Відео:
кодек:
розмір кадру: 1280 х 720
бітрейт: ~5100 кб/с

Аудіо # 1:
мова: українська
переклад: професійний дубльований
кодек: 2.0
бітрейт: 192 кб/с

Аудіо # 2:
мова: українська
переклад: багатоголосий закадровий
кодек: 5.1
бітрейт: 448 кб/с
Про озвучення

Переклад: Володимир Островський, Андрій Матвійчук.
Редагування: Володимир Островський, Віталій Дмитрук.
Озвучка: Світлана Доманова, Anna Smile, Олександр Фурман, Олексій Кузнєцов, Юрко Брідж (лише 3-тя серія).
Монтаж: Віталій Дмитрук.
Аудіо # 3:
мова: англійська
переклад: оригінал
кодек: 5.1
бітрейт: 448 кб/с

Субтитри:
мова: англійська
тип: програмні (м'які)
формат: *.srt
Info (до першої серії)

General
Unique ID : 322590036939079051766337440054403568845 (0xF2B094C8E1733C1D440614C3EDCE94CD)
Complete name : Sherlock s01e01. A Study in Pink (2010) [2xukr,eng] sub[eng] 720p.
Format :
Format version : Version 2
File size : 3.93 GiB
Duration : 1h 28mn
Overall bit rate : 6 383 Kbps
Movie name : Шерлок с01е01. Етюд у рожевих тонах / Sherlock s01e01. A Study in Pink (2010) 720p
Encoded date : UTC 2013-01-22 19:41:55
Writing application : v5.7.0 ('The Whirlwind') built on Jul 8 2012 19:19:57
Writing library : libebml v1.2.3 + v1.3.0
Attachment : Yes

Video
ID : 1
Format : AVC
Format/Info : Advanced Video Codec
Format profile : [email protected]
Format settings, CABAC : Yes
Format settings, ReFrames : 9 frames
Codec ID : V_MPEG4/ISO/AVC
Duration : 1h 28mn
Bit rate : 5 168 Kbps
Width : 1 280 pixels
Height : 720 pixels
Display aspect ratio : 16:9
Frame rate : 25.000 fps
Color space : YUV
Chroma subsampling : 4:2:0
Bit depth : 8 bits
Scan type : Progressive
Bits/(Pixel*Frame) : 0.224
Stream size : 3.18 GiB (81%)
Title : Шерлок с01е01. Етюд у рожевих тонах / Sherlock s01e01. A Study in Pink (2010) 720p
Writing library : core 104 r1703 cd21d05
Encoding settings : cabac=1 / ref=9 / deblock=1:-3:-3 / analyse=0x3:0x133 / me=umh / subme=10 / psy=1 / psy_rd=1.00:0.25 / mixed_ref=1 / me_range=24 / chroma_me=1 / trellis=2 / 8x8dct=1 / cqm=0 / deadzone=21,11 / fast_pskip=0 / chroma_qp_offset=-4 / threads=12 / sliced_threads=0 / nr=10 / decimate=0 / interlaced=0 / constrained_intra=0 / bframes=6 / b_pyramid=2 / b_adapt=2 / b_bias=0 / direct=3 / weightb=1 / open_gop=0 / weightp=2 / keyint=250 / keyint_min=25 / scenecut=40 / intra_refresh=0 / rc_lookahead=60 / rc=crf / mbtree=1 / crf=20.0 / qcomp=0.80 / qpmin=10 / qpmax=51 / qpstep=4 / vbv_maxrate=40000 / vbv_bufsize=30000 / crf_max=0.0 / ip_ratio=1.10 / aq=1:1.00 / nal_hrd=none
Language : English
Default : Yes
Forced : Yes

Audio #1
ID : 2
Format : AC-3
Format/Info : Audio Coding 3
Mode extension : CM (complete main)
Codec ID : A_AC3
Duration : 1h 28mn
Bit rate mode : Constant
Bit rate : 192 Kbps
Channel(s) : 2 channels
Channel positions : Front: L R
Sampling rate : 48.0 KHz
Bit depth : 16 bits
Compression mode : Lossy
Stream size : 121 MiB (3%)
Title : 2.0 @ 192 kbps | 1+1
Language : Ukrainian
Default : Yes
Forced : Yes

Audio #2
ID : 3
Format : AC-3
Format/Info : Audio Coding 3
Mode extension : CM (complete main)
Codec ID : A_AC3
Duration : 1h 28mn
Bit rate mode : Constant
Bit rate : 448 Kbps
Channel(s) : 6 channels
Channel positions : Front: L C R, Side: L R, LFE
Sampling rate : 48.0 KHz
Bit depth : 16 bits
Compression mode : Lossy
Stream size : 282 MiB (7%)
Title : 5.1 @ 448 kbps | Baibako
Language : Ukrainian
Default : No
Forced : No

Audio #3
ID : 4
Format : AC-3
Format/Info : Audio Coding 3
Mode extension : CM (complete main)
Codec ID : A_AC3
Duration : 1h 28mn
Bit rate mode : Constant
Bit rate : 448 Kbps
Channel(s) : 6 channels
Channel positions : Front: L C R, Side: L R, LFE
Sampling rate : 48.0 KHz
Bit depth : 16 bits
Compression mode : Lossy
Stream size : 282 MiB (7%)
Title : 5.1 @ 448 kbps
Language : English
Default : No
Forced : No

Text
ID : 5
Format : UTF-8
Codec ID : S_TEXT/UTF8
Codec ID/Info : UTF-8 Plain Text
Language : English
Default : No
Forced : No
Скріншоти






Джерело: &
Особиста оцінка: 10 - без зайвих вагань рекомендую всім!

Подяка панам:
Senou Natsuru - за сирий звук (до 1-ї доріжки)
Breniak - за зведення 1-ї доріжки
Gelios - за постер


Бронзовий реліз (на рейтинг впливає 75% завантаженого)
 Трекер:    Зареєстрований   

Завантажити / скачати серіал українською



відео для новачків



 Зареєстрований:   2013-01-22 22:51
 Розмір:   11.09 GB 
 Оцінка серіалу:   9.7/10 (Голосів: 139)
   
ratbol 
Модератор HD


З нами з: 03.02.09
Востаннє: 24.03.19
Повідомлень: 1076

2013-01-22 23:24  
А за зведення Breniak подякувати?
Додати звіт медіаінфо однієї з серій.
І перенесіть до HD.

bot 
робот


З нами з: 30.09.07
Востаннє: 26.05.05
Повідомлень: 21075

2013-01-22 23:31  
Тему перенесено з Телесеріали до форуму Серіали в HD


xfsthe

leroykendall 
Модератор HD


З нами з: 03.01.11
Востаннє: 24.03.19
Повідомлень: 749

2013-01-27 00:44  
Повний другий сезон буде?
xfsthe 
Оцифрування книг Гуртом
Оцифрування книг Гуртом


З нами з: 13.02.11
Востаннє: 19.03.19
Повідомлень: 279

2013-01-29 22:42  
leroykendall написано:
Повний другий сезон буде?

викладу, коли будуть озвучені 2 і 3 серії, першу серію, ріпи і субтитри вже маю.

katya7771999 
Новенький


З нами з: 17.02.13
Востаннє: 20.04.15
Повідомлень: 6

2013-02-17 16:31  
А чому йдуть англійські субтитри,якщо український переклад?
BMK12 
Відео Гуртом - підтримка та поширення
Відео Гуртом - підтримка та поширення


З нами з: 13.04.09
Востаннє: 24.03.19
Повідомлень: 3300

2013-07-07 17:19  
xfsthe написано:
викладу, коли будуть озвучені 2 і 3 серії

Я так розумію якісь затримки, канал більше не показував цей серіал?

Hrynchuk 
Новенький


З нами з: 06.11.11
Востаннє: 24.03.19
Повідомлень: 12

2014-01-15 18:42  
Скажіть будь ласка.А буде 2 сезон Шерлока з озвучкою 1+1?
NeetScrool 
Відео Гуртом - фільмокрай
Відео Гуртом - фільмокрай


З нами з: 10.01.13
Востаннє: 24.03.19
Повідомлень: 2935

2014-01-18 18:33  
Hrynchuk
Буде https://toloka.to/t53139

Влад Гук 
Частий відвідувач


З нами з: 06.07.13
Востаннє: 25.03.19
Повідомлень: 39

2015-08-17 19:07  
Дайте швидкості будь-ласка.
Mr Yuran 
Відео Гуртом - команда HD
Відео Гуртом - команда HD


З нами з: 15.11.11
Востаннє: 25.03.19
Повідомлень: 449

2015-08-17 19:12  
Влад Гук у вас малий рейтинг
Рейтинг: 0.03
Раджу почитати:
Навіщо потрібен рейтинг на торрент-трекері? (пояснення для новачків)
Розширені ЧаПи (FAQ)

Ваш часовий пояс: GMT + 2 Години

Нова тема   Відповісти