Океан Ельзи. Там, де нас нема [фільм про гурт] (2004)

Нові коментарі

Нова тема   Відповісти
Останній раз роздавалося getsbi (2017-10-21)
Автор Повідомлення
sergiyko 
Забанено
Забанено


З нами з: 17.06.08
Востаннє: 13.10.13
Повідомлень: 259

2013-01-22 19:21  
Океан Ельзи. Там, де нас нема [фільм про гурт] (2004)

Океан Ельзи. Там, де нас нема [фільм про гурт] (2004)


Жанр: Pop-Rock
Країна: Україна

Телеканал / кіностудія: 1+1
Режисер: Ваня Іван
Актори: Святослав Вокарчук, Павло Гудімов, Юрій Хусточка, Денис Глінін, Дмитро Шуров, Денис Дудко, Мілош Єлич, Руслана, Земфіра, Андрій Данилко та ін.

Сюжет:
Фільм про групу "Океан Ельзи". Охоплюється історія групи із самих витоків і по 2004 рік. Фільм містить рідкісні кадри концертних записів (перший виступ на Львівському державному ТБ, виступ в МСМ-кафе у Франції, пісня із Земфірою на Максідромі), фрагменти відеокліпів групи з історією виникнення, інтерв'ю з учасниками групи та оточуючими їх людьми.


Тривалість: 01:31:37
Якість:
Відео:
кодек:
розмір кадру: 704x544
бітрейт: 1721 кб/с

Аудіо:
мова: українська
переклад: оригінал
кодек: MP3
бітрейт: 256 кб/с
Info
General
Complete name : E:\Torrent\VideoMusic\ФільмПроОЕ.ДВДРіп.2004.avi
Format : AVI
Format/Info : Audio Video Interleave
File size : 1.27 GiB
Duration : 1h 31mn
Overall bit rate : 1 988 Kbps
Writing application : VirtualDubMod 1.5.10.3 | www.virtualdub-fr.org || (build 2550/release)
Writing library : VirtualDubMod build 2550/release

Video
ID : 0
Format : MPEG-4 Visual
Format profile : Advanced [email protected]
Format settings, BVOP : 2
Format settings, QPel : No
Format settings, GMC : No warppoints
Format settings, Matrix : Default (MPEG)
Codec ID :
Codec ID/Hint :
Duration : 1h 31mn
Bit rate : 1 722 Kbps
Width : 704 pixels
Height : 544 pixels
Display aspect ratio : 1.294
Frame rate : 25.000 fps
Color space : YUV
Chroma subsampling : 4:2:0
Bit depth : 8 bits
Scan type : Progressive
Compression mode : Lossy
Bits/(Pixel*Frame) : 0.180
Stream size : 1.10 GiB (87%)
Writing library : 1.2.1 (UTC 2008-12-04)

Audio
ID : 1
Format : MPEG Audio
Format version : Version 1
Format profile : Layer 3
Mode : Joint stereo
Codec ID : 55
Codec ID/Hint : MP3
Duration : 1h 31mn
Bit rate mode : Constant
Bit rate : 256 Kbps
Channel(s) : 2 channels
Sampling rate : 48.0 KHz
Compression mode : Lossy
Stream size : 168 MiB (13%)
Alignment : Aligned on interleaves
Interleave, duration : 40 ms (1.00 video frame)
Interleave, preload duration : 504 ms
Скріншоти
Джерело: Власний ріп з цього ДВД https://toloka.to/t43204
Особиста оцінка: 10 - без зайвих вагань рекомендую всім!


Золотий реліз (завантажене не впливає на рейтинг)
 Трекер:    Зареєстрований   

Завантажити / скачати фільм українською



відео для новачків



 Зареєстрований:   2013-01-22 19:21
 Розмір:   1.27 GB 
 Оцінка фільму:   10/10 (Голосів: 12)
   
Ваш часовий пояс: GMT + 2 Години

Нова тема   Відповісти