Мандрівка на захід: Нові пригоди Лакі Люка / Tous à l'Ouest: Une aventure de Lucky Luke (2007) 720p Ukr/Fra

Нові коментарі

Нова тема   Відповісти
Автор Повідомлення
Sando7 
Відео Гуртом - запис з ТБ
Відео Гуртом - запис з ТБ


З нами з: 04.05.09
Востаннє: 22.08.17
Повідомлень: 900

2013-01-21 23:44  
Мандрівка на захід: Нові пригоди Лакі Люка / Tous à l'Ouest: Une aventure de Lucky Luke (2007) 720p Ukr/Fra

Мандрівка на захід: Нові пригоди Лакі Люка / Tous à l'Ouest: Une aventure de Lucky Luke (2007) 720p Ukr/Fra


Жанр: комедія, пригоди, вестерн, мультфільм
Країна: Франція



Кіностудія / кінокомпанія: Pathe / Xilam
Режисер: Олівер Жан Марі
Актори: Ламбер Вільсон, Кловіс Корньяк, Франсуа Морел, Бернар Алан, Мікаель Лонсдаль, Тітофф Жан Піа, Ді Ді Бріджуотер...

Сюжет:
Нью-Йорк, 1855 рік. Знаменитим злочинцям братам Далтон доведеться в черговий раз з'явитися перед судом. Проте четверо негідників втікають і починають один за одним грабувати міські банки. Після божевільного переслідування бандитів по всій Америці Щасливчикові Люку вдається заарештувати Далтонів, проте Джо Далтон примудряється непомітно приховати награбоване у фургоні поселенців, яким за 80 днів необхідно дістатися до Каліфорнії, щоб зайняти землю. Ковбой Люк погоджується допомогти поселенцям подолати всі труднощі Дикого Заходу, а заодно супроводити до в'язниці і братів Далтон. Однак у тих на думці інше - вони розробляють план, як повернути награбоване собі ...


Тривалість: 01:26:39
Якість: 720p
Відео:
кодек:
розмір кадру: 1280 х 690
бітрейт: 3620 кб/с

Аудіо # 1:
мова: українська
переклад: багатоголосий закадровий
кодек: 2.0
бітрейт: 192 кб/с
з 00:33:06 по 00:33:30 відсутнє озвучення, так Новий канал транслював що після повернення з реклами майже 30 секунд не показали
Аудіо # 2:
мова: французька
переклад: оригінал
кодек: 5.1
бітрейт: 448 кб/с

Джерело озвучення:
Info
General
Unique ID : 239157494730490266803806468572922418068 (0xB3EC0EDC89266D5C90D027A1867A9394)
Complete name : C:\Users\sando7\Desktop\Tous à l'Ouest Une aventure de Lucky Luke (2007) [Ukr&Fra] 720p [Hurtom].
Format :
Format version : Version 1
File size : 2.58 GiB
Duration : 1h 26mn
Overall bit rate : 4 263 Kbps
Movie name : Go Westc A Lucky Luke Adventure (2007) - Release for HDCLUB by sender
Encoded date : UTC 2013-01-21 20:06:28
Writing application : mkvmerge v2.4.1 ('Use Me') built on Dec 5 2008 18:30:05
Writing library : libebml v0.7.7 + libmatroska v0.8.1

Video
ID : 1
Format : AVC
Format/Info : Advanced Video Codec
Format profile : [email protected]
Format settings, CABAC : Yes
Format settings, ReFrames : 8 frames
Codec ID : V_MPEG4/ISO/AVC
Duration : 1h 26mn
Bit rate : 3 620 Kbps
Width : 1 280 pixels
Height : 690 pixels
Display aspect ratio : 1.85:1
Frame rate mode : Constant
Frame rate : 23.976 fps
Color space : YUV
Chroma subsampling : 4:2:0
Bit depth : 8 bits
Scan type : Progressive
Bits/(Pixel*Frame) : 0.171
Stream size : 2.14 GiB (83%)
Title : Release for HDCLUB
Writing library : core 80 r1376M 3feaec2
Encoding settings : cabac=1 / ref=9 / deblock=1:-3:-3 / analyse=0x3:0x113 / me=umh / subme=9 / psy=1 / psy_rd=0.9:0.0 / mixed_ref=1 / me_range=32 / chroma_me=1 / trellis=2 / 8x8dct=1 / cqm=0 / deadzone=21,11 / fast_pskip=0 / chroma_qp_offset=-3 / threads=3 / sliced_threads=0 / nr=0 / decimate=0 / mbaff=0 / constrained_intra=0 / bframes=8 / b_pyramid=1 / b_adapt=2 / b_bias=0 / direct=1 / wpredb=1 / wpredp=2 / keyint=250 / keyint_min=25 / scenecut=40 / rc=2pass / mbtree=0 / bitrate=3620 / ratetol=1.0 / qcomp=0.60 / qpmin=10 / qpmax=51 / qpstep=4 / cplxblur=20.0 / qblur=0.5 / ip_ratio=1.40 / pb_ratio=1.30 / aq=2:1.00
Language : English
Default : Yes
Forced : No

Audio #1
ID : 2
Format : AC-3
Format/Info : Audio Coding 3
Mode extension : CM (complete main)
Format settings, Endianness : Big
Codec ID : A_AC3
Duration : 1h 26mn
Bit rate mode : Constant
Bit rate : 192 Kbps
Channel(s) : 2 channels
Channel positions : Front: L R
Sampling rate : 48.0 KHz
Bit depth : 16 bits
Compression mode : Lossy
Stream size : 119 MiB (5%)
Title : Novy Channel
Language : Ukrainian
Default : Yes
Forced : No

Audio #2
ID : 3
Format : AC-3
Format/Info : Audio Coding 3
Mode extension : CM (complete main)
Format settings, Endianness : Big
Codec ID : A_AC3
Duration : 1h 26mn
Bit rate mode : Constant
Bit rate : 448 Kbps
Channel(s) : 6 channels
Channel positions : Front: L C R, Side: L R, LFE
Sampling rate : 48.0 KHz
Bit depth : 16 bits
Compression mode : Lossy
Stream size : 278 MiB (11%)
Language : French
Default : No
Forced : No

Menu
00:00:00.000 : :Chapter 01
00:10:02.852 : :Chapter 02
00:15:06.530 : :Chapter 03
00:21:56.273 : :Chapter 04
00:28:56.651 : :Chapter 05
00:32:45.296 : :Chapter 06
00:40:09.073 : :Chapter 07
00:45:36.525 : :Chapter 08
00:53:56.191 : :Chapter 09
01:01:39.487 : :Chapter 10
01:12:16.874 : :Chapter 11
01:22:11.301 : :Chapter 12


За сиру доріжку подяка пану xslim
Реліз:


 Трекер:    Зареєстрований   

Завантажити / скачати мультфільм українською



відео для новачків



 Зареєстрований:   2013-01-21 23:44
 Розмір:   2.58 GB 
 Оцінка мультфільму:   9.4/10 (Голосів: 13)
   
piznajko 
Відео Гуртом - субтитрування
Відео Гуртом - субтитрування


З нами з: 24.02.09
Востаннє: 22.08.17
Повідомлень: 1331

2013-01-22 03:49  
Тре ше SD реілз.
Sando7 
Відео Гуртом - запис з ТБ
Відео Гуртом - запис з ТБ


З нами з: 04.05.09
Востаннє: 22.08.17
Повідомлень: 900

2013-01-22 12:45  
rkononenko написано:
Тре ше SD реілз.

Якщо в когось є бажання та можливість то зробіть, бо мені в найближчі 1 - 2 тижня не до цього

BMK12 
Відео Гуртом - підтримка та поширення
Відео Гуртом - підтримка та поширення


З нами з: 13.04.09
Востаннє: 22.08.17
Повідомлень: 3110

2013-11-07 11:43  
Будь ласка, роздайте.
Ваш часовий пояс: GMT + 2 Години

Нова тема   Відповісти