Мій красунчик-сусід / 이웃집 꽃미남 (14/16) (2013) 720p-mini Kor | sub Ukr

Нові коментарі

Нова тема   Відповісти
Останній раз роздавалося Ліхтарник (2019-04-28)
Автор Повідомлення
ksanka45 
Свій


З нами з: 04.06.11
Востаннє: 18.08.19
Повідомлень: 149

2013-01-12 16:52  
Мій красунчик-сусід / 이웃집 꽃미남 / Flower Boy Next Door (2013) 720p-mini Kor | sub Ukr

Мій красунчик-сусід / 이웃집 꽃미남 (14/16) (2013) 720p-mini Kor | sub Ukr


Жанр: комедія, романтичний
Країна: Південна Корея

Кіностудія / кінокомпанія: CJ E&M
Режисер: Jung Jung Hwa
Актори: Пак Шінхе, Юн Шіюн, Кім Чжіхун, Пак Сучжін, Ґо Кьонпьо, Мідзута Кокі та ін.

Сюжет:
Сучасну Рапунцель Ґо Докмі сховала у замку не зла відьма, а страх навколишнього світу. Кожний день вона проводить у себе в квартирі, нишком спостерігаючи з вікна за хлопцем, що живе навпроти. І нічого б не змінилося, якби раптово не з’явився Енріке — брат її коханого. Докмі доведеться покинути свій замок і пізнати світ разом з ним, всупереч своєму страху. Але не забувайте про хлопця з сусідньої квартири, що вже три роки закоханий у неї…


Координатор: Mina Mileeva
Переклад: Jazzkreker, ksanka, DianaArt.
Корекція: AL

Тривалість: 16 епізодів по 46 хв
Якість: 720p-mini
Відео:
кодек:
розмір кадру: 1280х720
бітрейт: 2223 кб/с

Аудіо:
мова: корейська
переклад: оригінал
кодек: MP3
бітрейт: 128 кб/с

Субтитри:
мова: українська
тип: програмні (м'які)
формат: *.

Info

General
Format: MPEG-4
Format profile: Base Media
Codec ID: isom
File size: 767 MiB
Duration: 46mn 4s
Overall bit rate: 2 327 Kbps

Video
ID: 1
Format: AVC
Format/Info: Advanced Video Codec
Format profile: [email protected]
Format settings, CABAC: Yes
Format settings, ReFrames: 4 frames
Codec ID: avc1
Codec ID/Info: Advanced Video Coding
Duration: 46mn 4s
Source duration: 46mn 4s
Bit rate: 2 200 Kbps
Maximum bit rate: 3 737 Kbps
Width: 1 280 pixels
Height: 720 pixels
Display aspect ratio: 16:9
Frame rate mode: Constant
Frame rate: 29.970 fps
Color space: YUV
Chroma subsampling: 4:2:0
Bit depth: 8 bits
Scan type: Progressive
Bits/(Pixel*Frame): 0.080
Stream size: 724 MiB (94%)
Source stream size: 724 MiB (94%)
Writing library: core 128 r2216 198a7ea
Encoding settings: cabac=1 / ref=3 / deblock=1:0:0 / analyse=0x3:0x113 / me=hex / subme=7 / psy=1 / psy_rd=1.00:0.00 / mixed_ref=1 / me_range=16 / chroma_me=1 / trellis=1 / 8x8dct=1 / cqm=0 / deadzone=21,11 / fast_pskip=1 / chroma_qp_offset=-2 / threads=12 / lookahead_threads=2 / sliced_threads=0 / nr=0 / decimate=1 / interlaced=0 / bluray_compat=0 / constrained_intra=0 / bframes=3 / b_pyramid=2 / b_adapt=1 / b_bias=0 / direct=1 / weightb=1 / open_gop=0 / weightp=2 / keyint=250 / keyint_min=25 / scenecut=40 / intra_refresh=0 / rc_lookahead=40 / rc=abr / mbtree=1 / bitrate=2200 / ratetol=1.0 / qcomp=0.60 / qpmin=0 / qpmax=69 / qpstep=4 / vbv_maxrate=50000 / vbv_bufsize=50000 / nal_hrd=none / ip_ratio=1.40 / aq=1:1.00

Audio
ID: 2
Format: MPEG Audio
Format version: Version 1
Format profile: Layer 3
Mode: Joint stereo
Mode extension: MS Stereo
Codec ID: 6B
Duration: 46mn 4s
Bit rate mode: Constant
Bit rate: 128 Kbps
Maximum bit rate: 132 Kbps
Channel(s): 2 channels
Sampling rate: 48.0 KHz
Compression mode: Lossy
Delay relative to video: 67ms
Stream size: 42.2 MiB (6%)


Скріншоти



Головні титри


Джерело: Інше
Особиста оцінка: 10 - без зайвих вагань рекомендую всім!

Додані 13-14 епізоди!


 Трекер:    Зареєстрований   

Завантажити / скачати серіал українською



відео для новачків



 Зареєстрований:   2013-06-29 18:00
 Розмір:   11.32 GB 
 Оцінка серіалу:   9.8/10 (Голосів: 4)
   
bot 
робот


З нами з: 30.09.07
Востаннє: 26.05.05
Повідомлень: 21775

2013-01-12 21:29  
Тему перенесено з Телесеріали до форуму Серіали в HD

Причина перенесення: бо це ХД
pyatachok

ratbol 
Модератор HD


З нами з: 03.02.09
Востаннє: 13.08.19
Повідомлень: 1076

2013-01-12 23:16  
1. Додайте звіт медіаінфо.
2. Зробити скрішоти в форматі png, два з яких мають бути з укр субтитрами.
3. Додати посилання на imdb.
4.
ksanka45 написано:
Flower Boy Next Door

Ще у назві файлу має бути вказано рік якість і тип, згідно правил, тобто (2013) 720p, також
ksanka45 написано:
Miy_krasunchik-susid_01.mp4
має бути англійська версія назви, або номер серії та епізоду.

https://toloka.to/t20052

ksanka45 
Свій


З нами з: 04.06.11
Востаннє: 18.08.19
Повідомлень: 149

2013-01-12 23:23  
Цитата:
3. Додати посилання на imdb.

Там його немає.
Цитата:
має бути англійська версія назви, або номер серії та епізоду.

Поміняти назву самого відео, я так розумію? Тоді зроблю це, як буду додавати другий епізод.

ratbol 
Модератор HD


З нами з: 03.02.09
Востаннє: 13.08.19
Повідомлень: 1076

2013-01-12 23:58  
ksanka45 написано:
Поміняти назву самого відео, я так розумію? Тоді зроблю це, як буду додавати другий епізод.

Добре.
А кращого відеоряду не було?
Скріншоти в png.

DiGen 
Модератор HD та координатор Команди HD
Модератор HD та координатор Команди HD


З нами з: 12.11.09
Востаннє: 24.06.13
Повідомлень: 1447

2013-01-15 20:33  
Bits/(Pixel*Frame): 0.080

назва торунь файлу

ksanka45 
Свій


З нами з: 04.06.11
Востаннє: 18.08.19
Повідомлень: 149

2013-01-15 21:44  
DiGen написано:

Bits/(Pixel*Frame): 0.080

назва торунь файлу

А що з нею не так?

Додано через 56 хвилин 26 секунд:

DiGen написано:
Bits/(Pixel*Frame): 0.080

Ось ці равки - найкращі, які можна знайти в Інтернеті. Якби були кращі, я б викладала їх. Попередній модератор сказав, що нехай.

ksanka45 
Свій


З нами з: 04.06.11
Востаннє: 18.08.19
Повідомлень: 149

2013-01-17 15:54  
Якщо ці характеристики не підходять розділу HD, то, може, перекинете в інший?
Я не дуже на цьому розуміюся, тому виправити якісь характеристики не можу. Але це дійсно найкращі равки, які можна знайти в Неті.

Gedet 
Відео Гуртом - субтитрування
Відео Гуртом - субтитрування


З нами з: 17.11.11
Востаннє: 25.06.18
Повідомлень: 1747

2013-01-19 02:10  
Це корейський серіал, де оригінальна назва? 이웃집 꽃미남
ksanka45 
Свій


З нами з: 04.06.11
Востаннє: 18.08.19
Повідомлень: 149

2013-01-19 14:53  
Gedet написано:
Це корейський серіал, де оригінальна назва? 이웃집 꽃미남

Оки, зроблю ханґилем, хоча навряд чи його хтось зрозуміє)))

nataluwechka 
Новенький


З нами з: 25.12.11
Востаннє: 27.07.15
Повідомлень: 1

2013-02-16 10:48  
Спасибі за переклад і за те, що можна тут скачати=))) Дуже класний серіал!
З нетерпінням чекаю продовження!

ksanka45 
Свій


З нами з: 04.06.11
Востаннє: 18.08.19
Повідомлень: 149

2013-06-29 18:04  
Додані 13-14 епізоди! Прохання перезавантажити торрент!
Скоро будуть і фінальні серії, бо сесія, слава Богу, скінчилася)))

Ваш часовий пояс: GMT + 2 Години

Нова тема   Відповісти